Welcome Guest ( Log In | Register )

> Releases Upload / Добавление релизов

Добавить релиз тут / Click here to add release
Рекомендованные обменники / Recommended file shares

 
Reply to this topicStart new topic
> Aym - L'fí Shigionoth [compilation] (2019), Raw Black Metal (D4)
post Oct 24 2021, 07:35:49
Post #1

Правь статус, ####!111
**************
Group: Металариец
Posts: 2,385
Releases: 1929
From: Praha
On Forums: 7 years 7 months
Thanks: 51477 time(s)
Czech Republic


(IMG:http://metalarea.org/images/audiocovers/2021_Oct/acov_tid357165_thumb.jpg)

*Artist: Aym
*Album: L'fí Shigionoth [compilation]
*Year: 2019
*Genre: Raw Black Metal
*Country: Finland (IMG:http://metalarea.org/forum/style_images/flags/Finland.png)
*Format: mp3@CBR320kbps
*Size: 82MB

Tracklist:
1. 7. Ps. 1 03:53
2. 7. Ps. 2 03:29
3. 7 Ps. 3 03:23
4. Mournful Ode 05:31
5. 9. Ps. 1 04:04
6. 9. Ps. 2 03:41
7. 9. Ps. 3 03:29
8. Quietus 06:17
******************************
Total playing time: 33:47



Extended info
Behest, CD.


Technical info
(IMG:http://metalarea.org/images/spectrogram/2021_Oct/4638d3e0fc5d6f5f0a4477ecbb02621b.png)
Input File: 01. 7. Ps. 1.mp3
Channels : 2
Sample Rate : 44100
Precision : 16-bit
Duration : 00:03:53.29 = 10288221 samples = 17497 CDDA sectors
File Size : 9.39M
Bit Rate : 322k
Sample Encoding: MPEG audio (layer I, II or III)
Comments :
Title=7. Ps. 1
Artist=AYM
Album=L'fí Shigionoth
Tracknumber=01/08
Year=2019
Genre=Black Metal



Register


Go to the top of the page
  Insert nick Quick quote
+Quote Post

Reply to this topicStart new topic
1 User(s) are reading this topic (1 Guests and 0 Anonymous Users)
0 Members:

 



- Lo-Fi Version Support form
Copyrights and abuse reports form
Time is now: 5th December 2021 - 00:15:48