Welcome Guest ( Log In | Register )

> И неформату есть предел.

Рэп/хип-хоп/шансон/поп удаляются. Для них есть свои порталы.

 
Reply to this topicStart new topic
> Hocico - Backstabbers [single] (2021), Dark Electro (D8)
post Oct 24 2021, 07:36:06
Post #1

Мегаманьяк
***********
Group: Металариец
Posts: 1,737
Releases: 562
On Forums: 11 years 2 weeks
Thanks: 12058 time(s)
Italy


(IMG:https://metalarea.org/images/audiocovers/2021_Oct/acov_tid357166_thumb.jpg)

*Artist: Hocico
*Album: Backstabbers [single]
*Year: 2021
*Genre: Dark Electro
*Country: Mexico (IMG:https://metalarea.org/forum/style_images/flags/Mexico.png)
*Format: mp3@CBR320kbps
*Size: 10MB

Tracklist:
1.Backstabbers 04:32
******************************
Total playing time: 4:32



Technical info
(IMG:https://metalarea.org/images/spectrogram/2021_Oct/d319cba475a99b8cca54af214e865e20.png)
Input File: 01. Backstabbers.mp3
Channels : 2
Sample Rate : 44100
Precision : 16-bit
Duration : 00:04:32.08 = 11998860 samples = 20406.2 CDDA sectors
File Size : 10.9M
Bit Rate : 321k
Sample Encoding: MPEG audio (layer I, II or III)
Comments :
Title=Backstabbers
Artist=Hocico
Album=Backstabbers
Tracknumber=01/01
Year=2021
Genre=Dark Electro



Register


Go to the top of the page
  Insert nick Quick quote
+Quote Post

Reply to this topicStart new topic
1 User(s) are reading this topic (1 Guests and 0 Anonymous Users)
0 Members:

 



- Lo-Fi Version Support form
Copyrights and abuse reports form
Time is now: 4th December 2021 - 23:28:29