Welcome Guest ( Log In | Register )

> И неформату есть предел.

Рэп/хип-хоп/шансон/поп удаляются. Для них есть свои порталы.

> Hocico - Broken Empires/Lost World [ep] (2021), Dark Electro (D8)
post Oct 24 2021, 07:38:04
Post #1

Мегаманьяк
***********
Group: Металариец
Posts: 1,692
Releases: 552
On Forums: 11 years 1 week
Thanks: 11838 time(s)
Italy


(IMG:https://metalarea.org/images/audiocovers/2021_Oct/acov_tid357167_thumb.jpg)

*Artist: Hocico
*Album: Broken Empires/Lost World [ep]
*Year: 2021
*Genre: Dark Electro
*Country: Mexico (IMG:https://metalarea.org/forum/style_images/flags/Mexico.png)
*Format: mp3@CBR320kbps
*Size: 58MB

Tracklist:
1.Broken Empires (Radio Version) 04:31
2.Lost World 05:24
3.Broken Empires (Extended Version) 06:15
4.Broken Empires (Hell Club Hocico version) 04:34
5.Broken Empires (Chaos Vector Remix) 04:32
******************************
Total playing time: 25:16



Technical info
(IMG:https://metalarea.org/images/spectrogram/2021_Oct/a455a7c0a4d8476a53c23f19975672aa.png)
Input File: 01. Broken Empires (Radio Version).mp3
Channels : 2
Sample Rate : 44100
Precision : 16-bit
Duration : 00:04:31.35 = 11966623 samples = 20351.4 CDDA sectors
File Size : 10.9M
Bit Rate : 323k
Sample Encoding: MPEG audio (layer I, II or III)
Comments :
Title=Broken Empires (Radio Version)
Artist=Hocico
Album=Lost World
Tracknumber=01/05
Year=2021
Genre=Dark Electro



Register


Go to the top of the page
  Insert nick Quick quote
+Quote Post
 
Start new topic
Replies (1 - 2)
post Oct 25 2021, 16:39:24
Post #2

Group: Подсевший
Posts: 26
Releases: 0
From: Токмак
On Forums: 13 years 9 months
Thanks: 1 time(s)
Ukraine


Разучились мелодии цепляющие писать. Да давно уже
Go to the top of the page
  Insert nick Quick quote
+Quote Post
post Oct 25 2021, 17:36:13
Post #3

Два Литра
**
Group: Завсегдатай
Posts: 194
Releases: 0
On Forums: 11 years 4 months
Thanks: 89 time(s)
Unknown


Очень крутой миник, звук меня разорвал, песни крутые, быстрые. Хокико одна из моих самых любимых EBM банд
Go to the top of the page
  Insert nick Quick quote
+Quote Post

Reply to this topicStart new topic
1 User(s) are reading this topic (1 Guests and 0 Anonymous Users)
0 Members:

 



- Lo-Fi Version Support form
Copyrights and abuse reports form
Time is now: 29th November 2021 - 07:35:14