Welcome Guest ( Log In | Register )

 
Reply to this topicStart new topic
> Valon Vinter - Fade The Eden (2020), Progressive Death Metal
post Oct 24 2021, 09:13:05
Post #1

Правь статус, ####!111
**************
Group: Металариец
Posts: 3,038
Releases: 1930
From: Greece
On Forums: 14 years 4 months
Thanks: 20132 time(s)
Greece


(IMG:https://metalarea.org/images/audiocovers/2021_Oct/acov_tid357171_thumb.jpg)

*Artist: Valon Vinter
*Album: Fade The Eden
*Year: 2020
*Genre: Progressive Death Metal
*Country: Greece (IMG:https://metalarea.org/forum/style_images/flags/Greece.png)
*Format: mp3@CBR320kbps
*Size: 131MB

Tracklist:
1. Eden Zero 04:14
2. The Winter Grows Old 03:29
3. Our Oath of Death 04:08
4. The Heir 05:22
5. Tortured Words 08:12
6. Remain 06:02
7. Veins of the Lost Sin 06:09
8. Father 05:18
9. The Sunless Realms 05:18
10. Memoriam Symphony 06:34
11. As the Sun Denies The Fall 04:21
******************************
Total playing time: 59:07

Technical info
(IMG:https://metalarea.org/images/spectrogram/2021_Oct/cd0a76d7e4e223e751b9829653916fa1.png)
Input File: 01.Valon Vinter - Eden Zero.mp3
Channels : 2
Sample Rate : 44100
Precision : 16-bit
Duration : 00:04:14.72 = 11233328 samples = 19104.3 CDDA sectors
File Size : 10.2M
Bit Rate : 320k
Sample Encoding: MPEG audio (layer I, II or III)



Register


Go to the top of the page
  Insert nick Quick quote
+Quote Post

Reply to this topicStart new topic
1 User(s) are reading this topic (1 Guests and 0 Anonymous Users)
0 Members:

 



- Lo-Fi Version Support form
Copyrights and abuse reports form
Time is now: 5th December 2021 - 00:11:48