Welcome Guest ( Log In | Register )

 
Reply to this topicStart new topic
> Reaper's Crypt - Demonic Rites Of Desecration [demo] (2021), Black/Death Metal
post Oct 24 2021, 09:19:55
Post #1

Правь статус, ####!111
**************
Group: Металариец
Posts: 3,038
Releases: 1930
From: Greece
On Forums: 14 years 4 months
Thanks: 20132 time(s)
Greece


(IMG:https://metalarea.org/images/audiocovers/2021_Oct/acov_tid357172_thumb.jpg)

*Artist: Reaper's Crypt
*Album: Demonic Rites Of Desecration [demo]
*Year: 2021
*Genre: Black/Death Metal
*Country: Greece (IMG:https://metalarea.org/forum/style_images/flags/Greece.png)
*Format: mp3@CBR320kbps
*Size: 18MB

Tracklist:
1. Intro 00:17
2. Satanic Slaughter 02:27
3. Evil Dimensions 03:49
4. Outro 01:27
******************************
Total playing time: 8:00

Technical info
(IMG:https://metalarea.org/images/spectrogram/2021_Oct/c4d7ce70c7b1697061d04ed830e7227f.png)
Input File: 1.Intro.mp3
Channels : 2
Sample Rate : 44100
Precision : 16-bit
Duration : 00:00:17.61 = 776425 samples = 1320.45 CDDA sectors
File Size : 709k
Bit Rate : 322k
Sample Encoding: MPEG audio (layer I, II or III)
Comment : 'Artist=Reaper's Crypt'



Register


Thanks:
(1) Olethros,
Go to the top of the page
  Insert nick Quick quote
+Quote Post

Reply to this topicStart new topic
1 User(s) are reading this topic (1 Guests and 0 Anonymous Users)
0 Members:

 



- Lo-Fi Version Support form
Copyrights and abuse reports form
Time is now: 4th December 2021 - 23:23:14