Welcome Guest ( Log In | Register )

 
Reply to this topicStart new topic
> Valon Vinter - Penumbra (2021), Progressive Death Metal
post Oct 24 2021, 09:23:31
Post #1

Правь статус, ####!111
**************
Group: Металариец
Posts: 3,038
Releases: 1930
From: Greece
On Forums: 14 years 4 months
Thanks: 20132 time(s)
Greece


(IMG:https://metalarea.org/images/audiocovers/2021_Oct/acov_tid357173_thumb.jpg)

*Artist: Valon Vinter
*Album: Penumbra
*Year: 2021
*Genre: Progressive Death Metal
*Country: Greece (IMG:https://metalarea.org/forum/style_images/flags/Greece.png)
*Format: mp3@CBR320kbps
*Size: 111MB

Tracklist:
1. Penumbra 05:14
2. Bael Anzu 03:42
3. Kha' Virnus 03:03
4. Sincerely 04:12
5. The Hatred 05:30
6. Fleshless 04:45
7. The Plague 04:06
8. Venominaga 03:07
9. Martyr of Horror 04:06
10. Unborn 04:30
11. Negant Omnes 04:15
12. A Breath Before Afterlife 03:29
******************************
Total playing time: 49:59

Technical info
(IMG:https://metalarea.org/images/spectrogram/2021_Oct/5beec7a401fdd9b30378ea356145f987.png)
Input File: 01.Valon Vinter - Penumbra.mp3
Channels : 2
Sample Rate : 44100
Precision : 16-bit
Duration : 00:05:14.65 = 13876065 samples = 23598.7 CDDA sectors
File Size : 12.6M
Bit Rate : 320k
Sample Encoding: MPEG audio (layer I, II or III)



Register


Go to the top of the page
  Insert nick Quick quote
+Quote Post

Reply to this topicStart new topic
1 User(s) are reading this topic (1 Guests and 0 Anonymous Users)
0 Members:

 



- Lo-Fi Version Support form
Copyrights and abuse reports form
Time is now: 5th December 2021 - 00:24:20