Welcome Guest ( Log In | Register )

 
Reply to this topicStart new topic
> Icon Of God - No Rebirth [single] (2021), Doom Metal (D8)
post Oct 24 2021, 09:28:39
Post #1

Правь статус, ####!111
**************
Group: Металариец
Posts: 3,038
Releases: 1930
From: Greece
On Forums: 14 years 4 months
Thanks: 20132 time(s)
Greece


(IMG:https://metalarea.org/images/audiocovers/2021_Oct/acov_tid357174_thumb.jpg)

*Artist: Icon Of God
*Album: No Rebirth [single]
*Year: 2021
*Genre: Doom Metal
*Country: Greece (IMG:https://metalarea.org/forum/style_images/flags/Greece.png)
*Format: mp3@CBR320kbps
*Size: 12MB

Tracklist:
1.No Rebirth 05:28
******************************
Total playing time: 5:28

Technical info
(IMG:https://metalarea.org/images/spectrogram/2021_Oct/2c7f2429fad787e532b42345ba35fdf9.png)
Input File: 1.No Rebirth.mp3
Channels : 2
Sample Rate : 44100
Precision : 16-bit
Duration : 00:05:28.09 = 14468725 samples = 24606.7 CDDA sectors
File Size : 13.1M
Bit Rate : 320k
Sample Encoding: MPEG audio (layer I, II or III)
Comments :
Title=No Rebirth
Artist=Icon of God
Album=No Rebirth
Tracknumber=1
Year=2021



Register


Go to the top of the page
  Insert nick Quick quote
+Quote Post

Reply to this topicStart new topic
1 User(s) are reading this topic (1 Guests and 0 Anonymous Users)
0 Members:

 



- Lo-Fi Version Support form
Copyrights and abuse reports form
Time is now: 4th December 2021 - 23:42:07