Welcome Guest ( Log In | Register )

> Releases Upload / Добавление релизов

Добавить релиз тут / Click here to add release
Рекомендованные обменники / Recommended file shares

 
Reply to this topicStart new topic
> Faded Memory - Entering Reality [demo] (1998), Melodic Power Metal
post Oct 24 2021, 12:22:03
Post #1

Правь статус, ####!111
**************
Group: Металариец
Posts: 3,038
Releases: 1930
From: Greece
On Forums: 14 years 4 months
Thanks: 20132 time(s)
Greece


(IMG:https://metalarea.org/images/audiocovers/2021_Oct/acov_tid357177_thumb.jpg)

*Artist: Faded Memory
*Album: Entering Reality [demo]
*Year: 1998
*Genre: Melodic Power Metal
*Country: Greece (IMG:https://metalarea.org/forum/style_images/flags/Greece.png)
*Format: mp3@CBR320kbps
*Size: 41MB

Tracklist:
1. Entering Relaity/Eternal Bleeding
2. Forever Slave
3. Holy Sins
4. Last Goodbye
******************************
Total playing time: 17:59

Technical info
(IMG:https://metalarea.org/images/spectrogram/2021_Oct/5325402b0b5324c6e538f079a5ed4c1e.png)
Input File: 1.Entering Reality - Eternal Bleeding.mp3
Channels : 2
Sample Rate : 44100
Precision : 16-bit
Duration : 00:03:35.88 = 9520264 samples = 16190.9 CDDA sectors
File Size : 8.64M
Bit Rate : 320k
Sample Encoding: MPEG audio (layer I, II or III)



Register


Go to the top of the page
  Insert nick Quick quote
+Quote Post

Reply to this topicStart new topic
1 User(s) are reading this topic (1 Guests and 0 Anonymous Users)
0 Members:

 



- Lo-Fi Version Support form
Copyrights and abuse reports form
Time is now: 5th December 2021 - 00:48:25