Welcome Guest ( Log In | Register )

 
Reply to this topicStart new topic
> Final Warning - Demo Tape '92 [demo] (1992), Heavy Metal
post Oct 24 2021, 12:29:58
Post #1

Правь статус, ####!111
**************
Group: Металариец
Posts: 3,038
Releases: 1930
From: Greece
On Forums: 14 years 4 months
Thanks: 20132 time(s)
Greece


(IMG:https://metalarea.org/images/audiocovers/2021_Oct/acov_tid357180_thumb.jpg)

*Artist: Final Warning
*Album: Demo Tape '92 [demo]
*Year: 1992
*Genre: Heavy Metal
*Country: Greece (IMG:https://metalarea.org/forum/style_images/flags/Greece.png)
*Format: mp3@CBR320kbps
*Size: 44MB

Tracklist:
1. The Final Day
2. Hopeless Dreams
3. Forgotten
4. The Lie
******************************
Total playing time: 19:50

Technical info
(IMG:https://metalarea.org/images/spectrogram/2021_Oct/9166a4440a3cc7041d3c3214487ec8a6.png)
Input File: 1.Final Day.mp3
Channels : 2
Sample Rate : 44100
Precision : 16-bit
Duration : 00:05:50.23 = 15445231 samples = 26267.4 CDDA sectors
File Size : 14.0M
Bit Rate : 320k
Sample Encoding: MPEG audio (layer I, II or III)
Comments :
Artist=Final Warning
Album=Demo Tape '92
Year=1992
Genre=12



Register


Go to the top of the page
  Insert nick Quick quote
+Quote Post

Reply to this topicStart new topic
1 User(s) are reading this topic (1 Guests and 0 Anonymous Users)
0 Members:

 



- Lo-Fi Version Support form
Copyrights and abuse reports form
Time is now: 4th December 2021 - 23:37:38