Welcome Guest ( Log In | Register )

 
Reply to this topicStart new topic
> Lost Fate - The Fate Of Humanity...? [demo] (1999), Heavy Metal
post Oct 24 2021, 12:55:05
Post #1

Правь статус, ####!111
**************
Group: Металариец
Posts: 3,038
Releases: 1930
From: Greece
On Forums: 14 years 4 months
Thanks: 20132 time(s)
Greece


(IMG:https://metalarea.org/images/audiocovers/2021_Oct/acov_tid357182_thumb.jpg)

*Artist: Lost Fate
*Album: The Fate Of Humanity...? [demo]
*Year: 1999
*Genre: Heavy Metal
*Country: Greece (IMG:https://metalarea.org/forum/style_images/flags/Greece.png)
*Format: mp3@CBR320kbps
*Size: 66MB

Tracklist:
1. Paths of Knowledge
2. Night and Day
3. Drained
4. Lost Fate (part one)
5. Lost Fate (part two)
6. Fake Reality
******************************
Total playing time: 29:19

Technical info
(IMG:https://metalarea.org/images/spectrogram/2021_Oct/d05e3363a24389bc94faf4fbf53f551b.png)
Input File: 1.Paths of Knowledge.mp3
Channels : 2
Sample Rate : 44100
Precision : 16-bit
Duration : 00:04:04.20 = 10769044 samples = 18314.7 CDDA sectors
File Size : 9.77M
Bit Rate : 320k
Sample Encoding: MPEG audio (layer I, II or III)
Comment : 'Artist=Lost Fate'



Register


Go to the top of the page
  Insert nick Quick quote
+Quote Post

Reply to this topicStart new topic
1 User(s) are reading this topic (1 Guests and 0 Anonymous Users)
0 Members:

 



- Lo-Fi Version Support form
Copyrights and abuse reports form
Time is now: 4th December 2021 - 23:50:08