Welcome Guest ( Log In | Register )

> Releases Upload / Добавление релизов

Добавить релиз тут / Click here to add release
Рекомендованные обменники / Recommended file shares

> Shadow Of Intent - Intensified Genocide [single] (2021), Symphonic Deathcore (D)
post Oct 24 2021, 14:09:27
Post #1

Литр
*
Group: Подсевший
Posts: 59
Releases: 3
From: Украина
On Forums: 3 years 4 months
Thanks: 40 time(s)
Ukraine


(IMG:https://metalarea.org/images/audiocovers/2021_Oct/acov_tid357184_thumb.jpg)

*Artist: Shadow Of Intent
*Album: Intensified Genocide [single]
*Year: 2021
*Genre: Symphonic Deathcore
*Country: United States (IMG:https://metalarea.org/forum/style_images/flags/United%20States.png)
*Format: mp3@CBR320kbps
*Size: 9MB

Tracklist:
1. Intensified Genocide
******************************
Total playing time: 4:05

Extended info


Technical info
(IMG:https://metalarea.org/images/spectrogram/2021_Oct/1df51159c815ad8b2802a71284fcb45e.png)
Input File: 01. Intensified Genocide.mp3
Channels : 2
Sample Rate : 44100
Precision : 16-bit
Duration : 00:04:04.31 = 10774203 samples = 18323.5 CDDA sectors
File Size : 9.86M
Bit Rate : 323k
Sample Encoding: MPEG audio (layer I, II or III)
Comments :
Title=Intensified Genocide
Artist=Shadow of Intent
Album=Intensified Genocide
Tracknumber=01
Year=2021
Genre=Symphonic Deathcore



Register


Go to the top of the page
  Insert nick Quick quote
+Quote Post
 
Start new topic
Replies (1 - 1)
post Oct 24 2021, 18:53:31
Post #2

Литр
*
Group: Подсевший
Posts: 59
Releases: 3
From: Украина
On Forums: 3 years 4 months
Thanks: 40 time(s)
Ukraine


flac
mega


Thanks:
(1) caro,
Go to the top of the page
  Insert nick Quick quote
+Quote Post

Reply to this topicStart new topic
1 User(s) are reading this topic (1 Guests and 0 Anonymous Users)
0 Members:

 



- Lo-Fi Version Support form
Copyrights and abuse reports form
Time is now: 4th December 2021 - 23:57:12