Welcome Guest ( Log In | Register )

> Releases Upload / Добавление релизов

Добавить релиз тут / Click here to add release
Рекомендованные обменники / Recommended file shares

 
Reply to this topicStart new topic
> Gomez's Childhood - Country On The Brink (1995), Thrash/Groove Metal
post Oct 24 2021, 14:24:24
Post #1

Подвал
**************
Group: Металариец
Posts: 16,508
Releases: 9432
From: Far East (Khabarovsk)
On Forums: 12 years 10 months
Thanks: 107768 time(s)
Russian Federation


(IMG:http://metalarea.org/images/audiocovers/2021_Oct/acov_tid357185_thumb.jpg)

*Artist: Gomez's Childhood
*Album: Country On The Brink
*Year: 1995
*Genre: Thrash/Groove Metal
*Country: United States (IMG:http://metalarea.org/forum/style_images/flags/United%20States.png)
*Format: mp3@CBR192kbps
*Size: 58MB

Tracklist:
1. Generation X 03:04
2. Betrayed 02:22
3. Time Has Come 03:39
4. Hate 03:16
5. Wave Of Aggravation 02:35
6. Blind 03:14
7. Condition Five 02:35
8. Before You Fall 02:16
9. Frustrated 03:18
10. Wake Up Homeless 02:30
11. Streets (Bonus Track) 02:16
12. Wake Up Homeless ('95 live) 02:41
13. Time Has Come ('95 live) 03:37
14. Wave of Aggravation ('95 live) 03:02
15. Generation X ('95 live) 02:44
******************************
Total playing time: 43:09

(IMG:http://metalarea.org/images/youtube.png)

Extended info
Band from Clifton, New Jersey.


Technical info
(IMG:http://metalarea.org/images/spectrogram/2021_Oct/7a7450861a7f25e90124101d046fb834.png)
Input File: 01-Generation X.mp3
Channels : 2
Sample Rate : 44100
Precision : 16-bit
Duration : 00:03:22.59 = 8934219 samples = 15194.2 CDDA sectors
File Size : 4.86M
Bit Rate : 192k
Sample Encoding: MPEG audio (layer I, II or III)
Comments :
Title=Generation X
Artist=Gomez's Childhood (US, NJ)
Album=Country On the Brink
Tracknumber=01
Year=1995-24-10
Genre=Thrash Metal



Register


Go to the top of the page
  Insert nick Quick quote
+Quote Post

Reply to this topicStart new topic
1 User(s) are reading this topic (1 Guests and 0 Anonymous Users)
0 Members:

 



- Lo-Fi Version Support form
Copyrights and abuse reports form
Time is now: 4th December 2021 - 23:03:36