Welcome Guest ( Log In | Register )

> Mortiferum - Preserved In Torment (2021), Old School Death/Doom Metal (D4)
post Oct 26 2021, 04:54:22
Post #1

Мегаманьяк
***********
Group: Металариец
Posts: 1,955
Releases: 648
On Forums: 11 years 2 months
Thanks: 13803 time(s)
Italy


(IMG:https://metalarea.org/images/audiocovers/2021_Oct/acov_tid357244_thumb.jpg)

*Artist: Mortiferum
*Album: Preserved In Torment
*Year: 2021
*Genre: Old School Death/Doom Metal
*Country: United States (IMG:https://metalarea.org/forum/style_images/flags/United%20States.png)
*Format: mp3@CBR320kbps
*Size: 92MB

Tracklist:
1.Eternal Procession 06:49
2.Incubus Of Bloodstained Visions 07:51
3.Seraphic Extinction 05:54
4.Exhumed From Mortal Spheres 05:38
5.Caudex Of Flesh 06:29
6.Mephitis Of Disease 07:05
******************************
Total playing time: 39:46



Technical info
(IMG:https://metalarea.org/images/spectrogram/2021_Oct/c42db009474b8799e19c33faf9d86552.png)
Input File: 04. Exhumed from Mortal Spheres.mp3
Channels : 2
Sample Rate : 44100
Precision : 16-bit
Duration : 00:05:38.76 = 14939492 samples = 25407.3 CDDA sectors
File Size : 14.0M
Bit Rate : 331k
Sample Encoding: MPEG audio (layer I, II or III)
Comments :
Title=Exhumed from Mortal Spheres
Artist=Mortiferum
Album=Preserved in Torment
Tracknumber=04
Year=2021
Genre=Old School Death/Doom Metal



Register


Go to the top of the page
  Insert nick Quick quote
+Quote Post
 
Start new topic
Replies (1 - 9)
post Oct 26 2021, 18:58:48
Post #2

Три Литра
***
Group: Завсегдатай
Posts: 271
Releases: 0
From: Калуга
On Forums: 3 years 11 months
Thanks: 79 time(s)
Russian Federation




Thanks:
Go to the top of the page
  Insert nick Quick quote
+Quote Post
post Oct 26 2021, 19:02:45
Post #3

Правь статус, ####!111
**************
Group: Металариец
Posts: 28,529
Releases: 20890
From: Г.Харьков
On Forums: 9 years 8 months
Thanks: 426946 time(s)
Unknown


FLAC (Tracks) 279 mb
Register


Go to the top of the page
  Insert nick Quick quote
+Quote Post
post Oct 26 2021, 20:07:02
Post #4

Туфлєблек то є файно
**************
Group: Металариец
Posts: 2,546
Releases: 0
From: Україна
On Forums: 13 years 2 weeks
Thanks: 2180 time(s)
Ukraine


Вотэта и Worm жирЪ повалил, и не тоша жирь, а слеЁзатачивый кипяток.
(IMG:style_emoticons/default/metaler.gif) (IMG:style_emoticons/default/9.gif) (IMG:style_emoticons/default/metaler.gif)


Thanks:
Go to the top of the page
  Insert nick Quick quote
+Quote Post
post Oct 26 2021, 20:24:28
Post #5

Добрейшей души Мегаманьяк
***********
Group: Металариец
Posts: 1,965
Releases: 0
From: Bashkortostan, Өфө
On Forums: 13 years 11 months
Thanks: 956 time(s)
Russian Federation


Молодцы. Держат марку. Прошлый был хорош - этот не хуже, а то и лучше.


Thanks:
(1) Occultas,
Go to the top of the page
  Insert nick Quick quote
+Quote Post
post Oct 27 2021, 07:15:47
Post #6

Три Литра
***
Group: Завсегдатай
Posts: 268
Releases: 0
From: TheМля
On Forums: 15 years 3 months
Thanks: 84 time(s)
Belarus


А ведь проняло, несмотря на лютый олдскулл, соскучился наверное.
Go to the top of the page
  Insert nick Quick quote
+Quote Post
post Oct 27 2021, 16:46:56
Post #7

Мегаманьяк
***********
Group: Металариец
Posts: 1,526
Releases: 0
From: Днепр
On Forums: 7 years 6 months
Thanks: 773 time(s)
Unknown


Пробирающе конечно.Особенно нравится как одни гитарные мотивы настигают другие , такое раздвоение . (IMG:style_emoticons/default/true_black.gif)


Thanks:
(1) Occultas,
Go to the top of the page
  Insert nick Quick quote
+Quote Post
post Oct 27 2021, 19:22:15
Post #8

Три Литра
***
Group: Завсегдатай
Posts: 217
Releases: 0
On Forums: 12 years 1 month
Thanks: 71 time(s)
Russian Federation


Отличный альбом. Радует, что современные группы создают музыку в лучших традициях смерть металла.


Thanks:
(1) Occultas,
Go to the top of the page
  Insert nick Quick quote
+Quote Post
post Dec 19 2021, 16:20:25
Post #9

Ад кипел смехом
**************
Group: Металариец
Posts: 6,969
Releases: 8
On Forums: 12 years 2 months
Thanks: 3341 time(s)
Unknown


Ух, кажись меня так не таращило с последнего альбома Krypts.
Go to the top of the page
  Insert nick Quick quote
+Quote Post
post Dec 20 2021, 14:36:46
Post #10

Шесть Литров
******
Group: Металариец
Posts: 648
Releases: 0
From: Лыткарино
On Forums: 2 years 8 months
Thanks: 171 time(s)
Russian Federation


Хорошая штука, да.
Go to the top of the page
  Insert nick Quick quote
+Quote Post

Reply to this topicStart new topic
2 User(s) are reading this topic (2 Guests and 0 Anonymous Users)
0 Members:

 



- Lo-Fi Version Support form
Copyrights and abuse reports form
Time is now: 19th January 2022 - 18:01:01