Welcome Guest ( Log In | Register )

> Dormant Ordeal - The Grand Scheme Of Things (2021), Death Metal (D5)
post Dec 2 2021, 13:58:29
Post #1

Маньяк
**********
Group: Металариец
Posts: 1,094
Releases: 934
On Forums: 1 year 2 months
Thanks: 24641 time(s)
United States


(IMG:http://metalarea.org/images/audiocovers/2021_Dec/acov_tid359072_thumb.jpg)

*Artist: Dormant Ordeal
*Album: The Grand Scheme Of Things
*Year: 2021
*Genre: Death Metal
*Country: Poland (IMG:http://metalarea.org/forum/style_images/flags/Poland.png)
*Format: mp3@CBR320kbps
*Size: 97MB

Tracklist:
01. At The Garden’s Gates 04:42
02. Poetry Doesn’t Work On Whores 04:13
03. Bright Constellations 04:54
04. Here Be Dragons 03:59
05. Letters To Mr. Smith 04:30
06. Let The Light In 05:06
07. Sides Of Defence 04:40
08. The Borders Of Our Language Are Not The Borders Of Our World 07:26
******************************
Total playing time: 39:30

Technical info
(IMG:http://metalarea.org/images/spectrogram/2021_Dec/da6c0ebac05b87897daf496be6ff095c.png)
Input File: 02. Poetry Doesn\'t Work On Whores.mp3
Channels : 2
Sample Rate : 44100
Precision : 16-bit
Duration : 00:04:13.00 = 11157300 samples = 18975 CDDA sectors
File Size : 10.3M
Bit Rate : 327k
Sample Encoding: MPEG audio (layer I, II or III)
Comments :
Title=Poetry Doesn’t Work On Whores
Artist=Dormant Ordeal
Album=The Grand Scheme Of Things
Tracknumber=02/08
Year=2021-12-03
Genre=Death Metal
Discnumber=1



Register


Go to the top of the page
  Insert nick Quick quote
+Quote Post
 
Start new topic
Replies (1 - 8)
post Dec 4 2021, 23:06:03
Post #2

Common dweller of hell
**************
Group: Металариец
Posts: 4,297
Releases: 12
From: Dnipro
On Forums: 13 years 11 months
Thanks: 1697 time(s)
Ukraine




Thanks:
Go to the top of the page
  Insert nick Quick quote
+Quote Post
post Dec 5 2021, 01:54:52
Post #3

Три Литра
***
Group: Завсегдатай
Posts: 281
Releases: 0
On Forums: 4 years 4 months
Thanks: 89 time(s)
Saint Helena


ЦИТАТА(isvili @ Dec 4 2021, 23:06:03) *

Блин, я каждый раз, видя аватар этого чела, думаю, что ему не нравится


Thanks:
Go to the top of the page
  Insert nick Quick quote
+Quote Post
post Dec 5 2021, 10:30:13
Post #4

Мегаманьяк
***********
Group: Металариец
Posts: 1,711
Releases: 1
From: APATIN, SERBIA, АПАТИН, СЕРБИЯ
On Forums: 14 years 8 months
Thanks: 5019 time(s)



Flac

Register


Go to the top of the page
  Insert nick Quick quote
+Quote Post
post Dec 6 2021, 18:54:28
Post #5

Семь Литров
*******
Group: Металариец
Posts: 716
Releases: 15
From: Brasil - Sao Paulo
On Forums: 2 years 2 months
Thanks: 590 time(s)
Brazil


This fucking rulez, holy shit (IMG:style_emoticons/default/20.gif)
Go to the top of the page
  Insert nick Quick quote
+Quote Post
post Dec 7 2021, 19:28:21
Post #6

кручу наждак
**************
Group: Металариец
Posts: 5,574
Releases: 107
From: Самара
On Forums: 12 years 1 month
Thanks: 4434 time(s)
Russian Federation


Достойная гиппопотамовщина.


Thanks:
(1) Mencae77,
Go to the top of the page
  Insert nick Quick quote
+Quote Post
post Dec 18 2021, 10:02:52
Post #7

добрый мизантроп
**************
Group: Металариец
Posts: 3,015
Releases: 1
From: Менск
On Forums: 11 years 7 months
Thanks: 1337 time(s)
Madagascar


Atmospheric Death 9/10
Remarkable drumms, its just leading throughout this atmoshperic album. Gutars made well, but not as good.


Thanks:
Go to the top of the page
  Insert nick Quick quote
+Quote Post
post Jan 31 2022, 18:48:57
Post #8

i listen to black metal
**************
Group: Металариец
Posts: 3,354
Releases: 144
From: Москва
On Forums: 15 years 6 months
Thanks: 2447 time(s)
Russian Federation


ЦИТАТА(Winterdark @ Dec 5 2021, 03:54:52) *
Блин, я каждый раз, видя аватар этого чела, думаю, что ему не нравится

в данном случае что эта группа со своими диссонансами никуда не годится (
Go to the top of the page
  Insert nick Quick quote
+Quote Post
post Jan 31 2022, 20:04:29
Post #9

Маньяк
**********
Group: Металариец
Posts: 1,155
Releases: 57
From: Санкт-Петербург
On Forums: 16 years 1 month
Thanks: 3243 time(s)
Russian Federation


Да ну, какой Бегемот, совсем не похоже ведь... да и не про диссонансы тоже... Я бы сказал, что это некоторое переосмысление творческого наследия Диссекшн, то бишь совсем не клон, но что-то из тех же областей. Довольно неплохо, кстати.
Go to the top of the page
  Insert nick Quick quote
+Quote Post

Reply to this topicStart new topic
1 User(s) are reading this topic (1 Guests and 0 Anonymous Users)
0 Members:

 



- Lo-Fi Version Support form
Copyrights and abuse reports form
Time is now: 5th July 2022 - 23:24:53