Welcome Guest ( Log In | Register )

> Releases Upload / Добавление релизов

Добавить релиз тут / Click here to add release
Рекомендованные обменники / Recommended file shares

> Frostskadet - The Moon's Reflection (2021), Atmospheric Black Metal
post Dec 5 2021, 07:33:46
Post #1

Мегаманьяк
***********
Group: Металариец
Posts: 1,969
Releases: 653
On Forums: 11 years 2 months
Thanks: 13892 time(s)
Italy


(IMG:https://metalarea.org/images/audiocovers/2021_Dec/acov_tid359210_thumb.jpg)

*Artist: Frostskadet
*Album: The Moon's Reflection
*Year: 2021
*Genre: Atmospheric Black Metal
*Country: Australia (IMG:https://metalarea.org/forum/style_images/flags/Australia.png)
*Format: mp3@CBR320kbps
*Size: 84MB

Tracklist:
1.Spell of Frost 07:31
2.The Moon's Reflection 10:28
3.Leaves on the Freezing Wind 06:02
4.Into the Swamp of the Witch 06:07
5.Hunted in the Falling Snow 06:35
******************************
Total playing time: 36:43



Technical info
(IMG:https://metalarea.org/images/spectrogram/2021_Dec/ce36c3a510554036d33713cd121a148b.png)
Input File: 03. Leaves On The Freezing Wind.mp3
Channels : 2
Sample Rate : 44100
Precision : 16-bit
Duration : 00:06:02.86 = 16002302 samples = 27214.8 CDDA sectors
File Size : 14.6M
Bit Rate : 322k
Sample Encoding: MPEG audio (layer I, II or III)
Comments :
Title=Leaves On The Freezing Wind
Artist=Frostskadet
Album=The Moon's Reflection
Tracknumber=03
Year=2021
Genre=Atmospheric Black Metal



Register


Go to the top of the page
  Insert nick Quick quote
+Quote Post
 
Start new topic
Replies (1 - 3)
post Dec 6 2021, 15:58:30
Post #2

Два Литра
**
Group: Завсегдатай
Posts: 141
Releases: 22
From: Узбекистан
On Forums: 11 years 7 months
Thanks: 188 time(s)
Uzbekistan


Дельный, интересный альбом с холодной северной атмосферой. Хотя писался и в Австралии, в жаре)
Go to the top of the page
  Insert nick Quick quote
+Quote Post
post Dec 6 2021, 19:37:04
Post #3

Три Литра
***
Group: Завсегдатай
Posts: 271
Releases: 0
From: Калуга
On Forums: 3 years 11 months
Thanks: 80 time(s)
Russian Federation


ЦИТАТА(WOLAND @ Dec 6 2021, 16:34:56) *
И. Муравьева | «Позвони мне, позвони».. Это реальный БЛЭК- МЕТАЛ,

Исполняет Жанна Рождественская! Это - классика! Это, бл.дь, знать надо!
А вот исполняет внучка Дунаевского, Алина Дунаевская, вокалистка и автор-композитор рок-группы MARKIZE.


Thanks:
(1) RUSP73,
Go to the top of the page
  Insert nick Quick quote
+Quote Post
post Dec 6 2021, 19:39:34
Post #4

Ёлд ХеллоВяйне
Group Icon
Group: V.I.P
Posts: 32,558
Releases: 144
From: Питер
On Forums: 15 years 2 months
Thanks: 20440 time(s)
Russian Federation


QUOTE(rominow @ 6th December 2021 - 21:37:04) *
А вот исполняет внучка Дунаевского, Алина Дунаевская, вокалистка и автор-композитор рок-группы MARKIZE.


И делает это очень плохо.


Thanks:
(2) ent404, WOLAND,
Go to the top of the page
  Insert nick Quick quote
+Quote Post

Reply to this topicStart new topic
2 User(s) are reading this topic (2 Guests and 0 Anonymous Users)
0 Members:

 



- Lo-Fi Version Support form
Copyrights and abuse reports form
Time is now: 24th January 2022 - 15:33:15