Welcome Guest ( Log In | Register )

> Witches Brew - Concealed Casket (2020), Black Metal
post Dec 8 2021, 12:11:36
Post #1

неделимое
**********
Group: Металариец
Posts: 1,444
Releases: 135
On Forums: 10 years 7 months
Thanks: 2882 time(s)
Russian Federation


(IMG:http://metalarea.org/images/audiocovers/2021_Dec/acov_tid359262_thumb.jpg)

*Artist: Witches Brew
*Album: Concealed Casket
*Year: 2020
*Genre: Black Metal
*Country: Netherlands (IMG:http://metalarea.org/forum/style_images/flags/Netherlands.png)
*Format: mp3@CBR320kbps
*Size: 96MB

Tracklist:
1. Framed In Flames 06:30
2. Torture On The Hill 04:49
3. Thousand Crosses Mark The Path 07:03
4. Protected By The Ejaculation Of Serpents 05:28
5. Resurrection Of The Uncreated 06:45
6. Sinking Through Death's Orchards 10:48
******************************
Total playing time: 41:23



Extended info
bandcamp


Technical info
(IMG:http://metalarea.org/images/spectrogram/2021_Dec/bae882a9ba30d7e415b88c81bab5fd34.png)
Input File: 02 - Torture On The Hill.mp3
Channels : 2
Sample Rate : 44100
Precision : 16-bit
Duration : 00:04:49.53 = 12768317 samples = 21714.8 CDDA sectors
File Size : 11.6M
Bit Rate : 320k
Sample Encoding: MPEG audio (layer I, II or III)



Register


Go to the top of the page
  Insert nick Quick quote
+Quote Post
 
Start new topic
Replies (1 - 4)
post Dec 8 2021, 16:55:46
Post #2
BAN
Banned till
May 23 2022, 13:08:44



Nice one, Occultas, thanks! (IMG:style_emoticons/default/20.gif)


Thanks:
Go to the top of the page
  Insert nick Quick quote
+Quote Post
post Dec 9 2021, 00:17:05
Post #3

De Mysteriis Dom Sathanas
**************
Group: Металариец
Posts: 4,423
Releases: 64
From: Doom
On Forums: 13 years 10 months
Thanks: 3832 time(s)
Russian Federation


Powerviolence (early); Black Metal (later) (IMG:style_emoticons/default/21.gif)
Go to the top of the page
  Insert nick Quick quote
+Quote Post
post Dec 10 2021, 20:04:51
Post #4

Три Литра
***
Group: Завсегдатай
Posts: 281
Releases: 0
On Forums: 4 years 3 months
Thanks: 89 time(s)
Saint Helena


ЦИТАТА(RUSP73 @ Dec 9 2021, 00:17:05) *
Powerviolence (early); Black Metal (later) (IMG:style_emoticons/default/21.gif)

лучшее, что случалось с black metal, начиная с 2019г.


Thanks:
(1) Occultas,
Go to the top of the page
  Insert nick Quick quote
+Quote Post
post Dec 17 2021, 10:04:25
Post #5

добрый мизантроп
**************
Group: Металариец
Posts: 2,940
Releases: 1
From: Менск
On Forums: 11 years 6 months
Thanks: 1306 time(s)
Madagascar


Black Death Doom , in these terms its good


Thanks:
(1) Occultas,
Go to the top of the page
  Insert nick Quick quote
+Quote Post

Reply to this topicStart new topic
2 User(s) are reading this topic (2 Guests and 0 Anonymous Users)
0 Members:

 



- Lo-Fi Version Support form
Copyrights and abuse reports form
Time is now: 18th May 2022 - 13:35:46