Welcome Guest ( Log In | Register )

> И неформату есть предел.

Рэп/хип-хоп/шансон/поп удаляются. Для них есть свои порталы.

 
Reply to this topicStart new topic
> Atman Feat. Anna Nacher - Tradition (1999), Psychedelic Folk/Avant-Folk
post Dec 11 2021, 14:51:33
Post #1

Литр
*
Group: Подсевший
Posts: 65
Releases: 13
From: Поволжье
On Forums: 4 years 2 months
Thanks: 220 time(s)
Russian Federation


(IMG:https://metalarea.org/images/audiocovers/2021_Dec/acov_tid359425_thumb.jpg)

*Artist: Atman Feat. Anna Nacher
*Album: Tradition
*Year: 1999
*Genre: Psychedelic Folk/Avant-Folk
*Country: Poland (IMG:https://metalarea.org/forum/style_images/flags/Poland.png)
*Format: mp3@CBR320kbps
*Size: 143MB

Tracklist:
1. 39 I Ching 4:34
2. The Theatre of Mist 6:54
3. Third Stone From the Sun 3:31
4. Natural Landscapes (1) 2:56
5. Free-P 3:44
6. Tensegretty 4:07
7. The Talking Meadow (Story) 16:15
8. Natural Landscapes (2) 2:42
9. Lullaby for Rainbow Warrior 3:24
10. The North of the World 4:36
11. In Your Head (Dust) 1:40
12. The (Live) Theatre of Mist 7:32
13. Kosovo 3:12
******************************
Total playing time: 1:05:07

Extended info
CD-переиздание кассетного альбома Atman "Tradition" (1996) с обновлённым треклистом.

CD Drunken Fish DFR-45 (1999), USA.


Technical info
(IMG:https://metalarea.org/images/spectrogram/2021_Dec/0fe5e4983993aad91fe5377abbf2180e.png)
Input File: 01 39 I Ching.mp3
Channels : 2
Sample Rate : 44100
Precision : 16-bit
Duration : 00:04:34.00 = 12083400 samples = 20550 CDDA sectors
File Size : 11.0M
Bit Rate : 321k
Sample Encoding: MPEG audio (layer I, II or III)
Comments :
Title=39 I Ching
Artist=Atman feat. Anna Nacher
Album=Tradition
Tracknumber=1/13
Year=1999
Genre=Psychedelic Folk



Register


Thanks:
Go to the top of the page
  Insert nick Quick quote
+Quote Post

Reply to this topicStart new topic
1 User(s) are reading this topic (1 Guests and 0 Anonymous Users)
0 Members:

 



- Lo-Fi Version Support form
Copyrights and abuse reports form
Time is now: 6th July 2022 - 08:42:11