Welcome Guest ( Log In | Register )

> И неформату есть предел.

Рэп/хип-хоп/шансон/поп удаляются. Для них есть свои порталы.

 
Reply to this topicStart new topic
> Venice Waters - The Ship (2009), Dark Ambient
post Dec 11 2021, 15:25:47
Post #1

Литр
*
Group: Подсевший
Posts: 65
Releases: 13
From: Поволжье
On Forums: 4 years 4 months
Thanks: 222 time(s)
Russian Federation


(IMG:https://metalarea.org/images/audiocovers/2021_Dec/acov_tid359426_thumb.jpg)

*Artist: Venice Waters
*Album: The Ship
*Year: 2009
*Genre: Dark Ambient
*Country: Unknown (IMG:https://metalarea.org/forum/style_images/flags/Unknown.png)
*Format: mp3@CBR256kbps
*Size: 41MB

Tracklist:
1. She Brings The Sea Bed To The Shore Line 11:05
2. She Takes The Shore Line With Her To The Villages 14:07
******************************
Total playing time: 25:12

Extended info
Label: Smell The Stench – sts-net 431.
Free downloadable release.

Альбом был скачан в оригинальном битрейте (256) с ныне неактивного сайта австралийского лейбла Smell The Stench.


Technical info
(IMG:https://metalarea.org/images/spectrogram/2021_Dec/45c9640aae05031e82c222cdcc1029c9.png)
Input File: 01 she brings the sea bed to the shore line.mp3
Channels : 2
Sample Rate : 44100
Precision : 16-bit
Duration : 00:11:06.00 = 29370380 samples = 49949.6 CDDA sectors
File Size : 21.3M
Bit Rate : 256k
Sample Encoding: MPEG audio (layer I, II or III)
Comments :
Title=she brings the sea bed to the shore line
Album=The Ship
Year=2009
Genre=Dark Ambient



Register


Thanks:
Go to the top of the page
  Insert nick Quick quote
+Quote Post

Reply to this topicStart new topic
1 User(s) are reading this topic (1 Guests and 0 Anonymous Users)
0 Members:

 



- Lo-Fi Version Support form
Copyrights and abuse reports form
Time is now: 17th August 2022 - 12:36:25