Welcome Guest ( Log In | Register )

> Rostorchester - Live In Switzerland 2019 [live] (2021), Black Metal (D6)
post Dec 29 2021, 18:27:03
Post #1

Два Литра
**
Group: Завсегдатай
Posts: 125
Releases: 61
On Forums: 3 years 1 month
Thanks: 1464 time(s)
Unknown


(IMG:https://metalarea.org/images/audiocovers/2021_Dec/acov_tid359999_thumb.jpg)

*Artist: Rostorchester
*Album: Live In Switzerland 2019 [live]
*Year: 2021
*Genre: Black Metal
*Country: Switzerland (IMG:https://metalarea.org/forum/style_images/flags/Switzerland.png)
*Format: mp3@CBR320kbps
*Size: 96MB

Tracklist:
1. Intro, Gustloff Im Herbstnebel 2:34
2. Mit Dem Herbst Im Herz Aus Eisen 3:06
3. Leben In Lebensabendrot 3:05
4. So Verbittert Wie Verwittert 3:21
5. Was ein Geistersarg verbar 3:51
6. Klingen 3:33
7. Wes' Gebein Die Marmorsaerge Harren 2:39
8. Moloch 2:59
9. Wenn die Faust der Himmel uns zerschmettert 2:33
10. Brady oder Der Sang der Moore im Nebel 4:17
11. Verschrobenheit 2:05
12. Die Stille Der See 4:59
13. Augen So Lieblos Wie Lidlos 2:34
******************************
Total playing time: 41:36



Extended info
This Tape was included in the Special Edition of "Rostorchester – Geister : Särge : Leichen : Berge"


Technical info
(IMG:https://metalarea.org/images/spectrogram/2021_Dec/16c21bb8e56eebec1d45ea39aa1a4dd3.png)
Input File: 02 Mit Dem Herbst Im Herz Aus Eisen.mp3
Channels : 2
Sample Rate : 44100
Precision : 16-bit
Duration : 00:03:06.03 = 8203835 samples = 13952.1 CDDA sectors
File Size : 7.44M
Bit Rate : 320k
Sample Encoding: MPEG audio (layer I, II or III)
Comments :
Title=Mit Dem Herbst Im Herz Aus Eisen
Artist=Rostorchester
Album=Live in Switzerland 2019
Tracknumber=2
Year=2021
Genre=Black Metal



Register


Go to the top of the page
  Insert nick Quick quote
+Quote Post
 
Start new topic
Replies (1 - 1)
post Dec 30 2021, 10:14:09
Post #2

добрый мизантроп
**************
Group: Металариец
Posts: 2,940
Releases: 1
From: Менск
On Forums: 11 years 6 months
Thanks: 1306 time(s)
Madagascar


Интересно звучат на сцене, по-другому, сильно падает акцент с мелодики, больше драйва, красивое живое звучание, эх


Thanks:
(1) Verhasst,
Go to the top of the page
  Insert nick Quick quote
+Quote Post

Reply to this topicStart new topic
2 User(s) are reading this topic (2 Guests and 0 Anonymous Users)
0 Members:

 



- Lo-Fi Version Support form
Copyrights and abuse reports form
Time is now: 18th May 2022 - 13:50:07