Welcome Guest ( Log In | Register )

> Pale Shroud - On Top O The Mound (Demo I) [demo] (2021), Raw Black Metal
post Jan 1 2022, 09:29:09
Post #1

Правь статус, ####!111
**************
Group: Металариец
Posts: 2,468
Releases: 2003
From: Praha
On Forums: 8 years 1 month
Thanks: 54478 time(s)
Czech Republic


(IMG:http://metalarea.org/images/audiocovers/2022_Jan/acov_tid360090_thumb.jpg)

*Artist: Pale Shroud
*Album: On Top O The Mound (Demo I) [demo]
*Year: 2021
*Genre: Raw Black Metal
*Country: United Kingdom (IMG:http://metalarea.org/forum/style_images/flags/United%20Kingdom.png)
*Format: mp3@CBR320kbps
*Size: 65MB

Tracklist:
1. I 04:53
2. II 06:06
3. III 05:32
4. IV 06:14
5. V 05:17
******************************
Total playing time: 28:02



Technical info
(IMG:http://metalarea.org/images/spectrogram/2022_Jan/e28a89158ce23c375a38f4f1aa16ca37.png)
Input File: 02. II.mp3
Channels : 2
Sample Rate : 44100
Precision : 16-bit
Duration : 00:06:07.09 = 16188757 samples = 27531.9 CDDA sectors
File Size : 14.7M
Bit Rate : 321k
Sample Encoding: MPEG audio (layer I, II or III)
Comments :
Title=II
Artist=Pale Shroud
Album=On Top O The Mound (Demo I)
Tracknumber=02/05
Year=2021
Genre=Black Metal



Register


Go to the top of the page
  Insert nick Quick quote
+Quote Post
 
Start new topic
Replies (1 - 4)
post Jan 1 2022, 17:36:38
Post #2

Четыре Литра
****
Group: Металариец
Posts: 314
Releases: 0
From: Калуга
On Forums: 4 years 3 months
Thanks: 103 time(s)
Russian Federation


отличное демо, пролетает как вихрь.
Go to the top of the page
  Insert nick Quick quote
+Quote Post
post Jan 4 2022, 11:49:48
Post #3

добрый мизантроп
**************
Group: Металариец
Posts: 2,940
Releases: 1
From: Менск
On Forums: 11 years 6 months
Thanks: 1306 time(s)
Madagascar


Много приятных интересных ходов, но и много размазывания, реприз (а как еще выпустить 4 релиза в 2021?)
Хороший звук
Go to the top of the page
  Insert nick Quick quote
+Quote Post
post Jan 4 2022, 15:44:18
Post #4

I hate you all
**************
Group: Металариец
Posts: 2,927
Releases: 93
From: Ukraine
On Forums: 15 years 1 week
Thanks: 7464 time(s)
Ukraine


Перезалейти плз на медиаогонь или мегу !

Go to the top of the page
  Insert nick Quick quote
+Quote Post
post Jan 5 2022, 08:58:54
Post #5

добрый мизантроп
**************
Group: Металариец
Posts: 2,940
Releases: 1
From: Менск
On Forums: 11 years 6 months
Thanks: 1306 time(s)
Madagascar


ЦИТАТА(rimfrost @ Jan 4 2022, 17:44:18) *
Перезалейти плз на медиаогонь или мегу !


mirror
Register


Go to the top of the page
  Insert nick Quick quote
+Quote Post

Reply to this topicStart new topic
2 User(s) are reading this topic (2 Guests and 0 Anonymous Users)
0 Members:

 



- Lo-Fi Version Support form
Copyrights and abuse reports form
Time is now: 18th May 2022 - 13:26:10