Welcome Guest ( Log In | Register )

> Обрій & Terrorscum - Обрій & Terrorscum [split] (2021), Death Metal | Death Metal
post Jan 9 2022, 07:13:32
Post #1

Правь статус, ####!111
**************
Group: Металариец
Posts: 2,598
Releases: 1171
On Forums: 11 years 5 months
Thanks: 23121 time(s)
Russian Federation


(IMG:https://metalarea.org/images/audiocovers/2022_Jan/acov_tid360299_thumb.jpg)

*Artist: Обрій & Terrorscum
*Album: Обрій & Terrorscum [split]
*Year: 2021
*Genre: Death Metal | Death Metal
*Country: Ukraine (IMG:https://metalarea.org/forum/style_images/flags/Ukraine.png) | Ukraine (IMG:https://metalarea.org/forum/style_images/flags/Ukraine.png)
*Format: mp3@CBR320kbps
*Size: 35MB

Tracklist:
Обрій:
1.Чорна смерть / Black Death 03:11
2.Видіння / Vision 04:15
Terrorscum:
3.Work Harder, Children 02:58
4.Battered Knees 03:09
******************************
Total playing time: 13:33



Technical info
(IMG:https://metalarea.org/images/spectrogram/2022_Jan/acb456d91ce30e8f2331e7c071837d55.png)
Input File: 2. Обрій - Видіння.mp3
Channels : 2
Sample Rate : 44100
Precision : 16-bit
Duration : 00:04:15.54 = 11269182 samples = 19165.3 CDDA sectors
File Size : 10.2M
Bit Rate : 320k
Sample Encoding: MPEG audio (layer I, II or III)
Comments :
Title=Видіння
Artist=Обрій
Album=Split
Tracknumber=02
Year=2021
Genre=Death Metal



Register


Go to the top of the page
  Insert nick Quick quote
+Quote Post
 
Start new topic
Replies (1 - 5)
post Jan 10 2022, 17:08:16
Post #2

Четыре Литра
****
Group: Металариец
Posts: 314
Releases: 0
From: Калуга
On Forums: 4 years 3 months
Thanks: 103 time(s)
Russian Federation


Go to the top of the page
  Insert nick Quick quote
+Quote Post
post Jan 10 2022, 19:07:29
Post #3

Литр
*
Group: Подсевший
Posts: 99
Releases: 0
From: Kharkiv
On Forums: 2 years 11 months
Thanks: 51 time(s)
Ukraine


Обрій это как ранний Entombed + поэтичные тексты + выделенный бас
Terrorscum интересно, но тоже на что-то похоже типа Vader + норм вокал + пару живых риффов


Thanks:
(1) Storky,
Go to the top of the page
  Insert nick Quick quote
+Quote Post
post Jan 11 2022, 13:09:10
Post #4

добрый мизантроп
**************
Group: Металариец
Posts: 2,940
Releases: 1
From: Менск
On Forums: 11 years 6 months
Thanks: 1306 time(s)
Madagascar


Обрій - звук дали, на риффах отдохнули, и лирика должна быть хотя б в 1,5 раза быстрее, чтобы иметь вес
Terrorscum - классное грув-дэтовое звучание , но в игре всех инструментов присутствует лоу эффорт, особенно в 3.Work Harder, Children


Thanks:
(1) Dionis,
Go to the top of the page
  Insert nick Quick quote
+Quote Post
post Jan 11 2022, 19:37:46
Post #5

Литр
*
Group: Подсевший
Posts: 99
Releases: 0
From: Kharkiv
On Forums: 2 years 11 months
Thanks: 51 time(s)
Ukraine


QUOTE(Storky @ Jan 11 2022, 17:09:10) *
Обрій - звук дали, на риффах отдохнули, и лирика должна быть хотя б в 1,5 раза быстрее, чтобы иметь вес
Terrorscum - классное грув-дэтовое звучание , но в игре всех инструментов присутствует лоу эффорт, особенно в 3.Work Harder, Children


пожалуй, соглашусь и с этим мнением. проблема тут вероятно в другом - переслушивать не тянет...


Thanks:
(1) Storky,
Go to the top of the page
  Insert nick Quick quote
+Quote Post
post Jan 13 2022, 08:47:14
Post #6

0%Tolerance
***********
Group: Металариец
Posts: 1,820
Releases: 0
On Forums: 9 years 8 months
Thanks: 390 time(s)
Unknown


Хорошо и одноразово отыграли и одни, и вторые.
Go to the top of the page
  Insert nick Quick quote
+Quote Post

Reply to this topicStart new topic
2 User(s) are reading this topic (2 Guests and 0 Anonymous Users)
0 Members:

 



- Lo-Fi Version Support form
Copyrights and abuse reports form
Time is now: 18th May 2022 - 14:13:29