Welcome Guest ( Log In | Register )

> И неформату есть предел.

Рэп/хип-хоп/шансон/поп удаляются. Для них есть свои порталы.

> Spine Wrench - Spine Wrench [ep] (1994), Industrial Metal (D5)
post Jan 18 2022, 16:58:57
Post #1

Group: Подсевший
Posts: 47
Releases: 9
On Forums: 4 years 10 months
Thanks: 226 time(s)
Russian Federation


(IMG:https://metalarea.org/images/audiocovers/2022_Jan/acov_tid360639_thumb.jpg)

*Artist: Spine Wrench
*Album: Spine Wrench [ep]
*Year: 1994
*Genre: Industrial Metal
*Country: United Kingdom (IMG:https://metalarea.org/forum/style_images/flags/United%20Kingdom.png)
*Format: mp3@CBR256kbps
*Size: 31MB

Tracklist:
01. Soulscape 04:25
02. Body Socket 05:23
03. Black Eye Burnout 08:30
******************************
Total playing time: 18:18

Technical info
(IMG:https://metalarea.org/images/spectrogram/2022_Jan/2f40edd0a64416c4fffad0e553e2a837.png)
Input File: Spine Wrench - Soulscape.mp3
Channels : 2
Sample Rate : 44100
Precision : 16-bit
Duration : 00:04:26.03 = 11731967 samples = 19952.3 CDDA sectors
File Size : 8.51M
Bit Rate : 256k
Sample Encoding: MPEG audio (layer I, II or III)
Comments :
Title=Soulscape
Artist=Spine Wrench
Album=Spine Wrench
Tracknumber=1
Year=1994
Genre=Industrial Metal



Register


Go to the top of the page
  Insert nick Quick quote
+Quote Post
 
Start new topic
Replies (1 - 1)
post Jan 24 2022, 06:13:27
Post #2

...Only Death Is Real...
**************
Group: Металариец
Posts: 3,097
Releases: 19
On Forums: 12 years 2 weeks
Thanks: 2043 time(s)
Antarctica


Go to the top of the page
  Insert nick Quick quote
+Quote Post

Reply to this topicStart new topic
1 User(s) are reading this topic (1 Guests and 0 Anonymous Users)
0 Members:

 



- Lo-Fi Version Support form
Copyrights and abuse reports form
Time is now: 11th August 2022 - 06:30:03