Welcome Guest ( Log In | Register )

> И неформату есть предел.

Рэп/хип-хоп/шансон/поп удаляются. Для них есть свои порталы.

 
Reply to this topicStart new topic
> Kairon; Irse! - Polysomn (2020), Shoegaze/Space Rock/Post-Rock/Progressive Rock
post Jan 23 2022, 11:39:52
Post #1

практики шума одухотворяющего
**************
Group: Металариец
Posts: 3,411
Releases: 114
From: хроник дисмембера
On Forums: 4 years 4 months
Thanks: 5106 time(s)
Russian Federation


(IMG:https://metalarea.org/images/audiocovers/2022_Jan/acov_tid360816_thumb.jpg)

*Artist: Kairon; Irse!
*Album: Polysomn
*Year: 2020
*Genre: Shoegaze/Space Rock/Post-Rock/Progressive Rock
*Country: Finland (IMG:https://metalarea.org/forum/style_images/flags/Finland.png)
*Format: mp3@CBR320kbps
*Size: 117MB

Tracklist:
1.Psionic Static 06:28
2.Retrograde 05:42
3.Welcome Blue Valkyrie 06:40
4.An Bat None 06:04
5.Mir Inoi 05:05
6.Altaïr Descends 06:40
7.Hypnogram 06:06
8.White Flies 03:51
9.Polysomn 02:25
******************************
Total playing time: 49:01



Extended info
Dmitry Melet - Vocals, Bass, Guitar
Johannes Kohal - Drums
Lasse Luhta - Guitar, Bass
Niko Lehdontie - Guitar, Synth, Programming, Backing vocals


Technical info
(IMG:https://metalarea.org/images/spectrogram/2022_Jan/7b26550a9957f0fb0faa70bc454bbbea.png)
Input File: 02. Retrograde.mp3
Channels : 2
Sample Rate : 44100
Precision : 16-bit
Duration : 00:05:42.93 = 15123257 samples = 25719.8 CDDA sectors
File Size : 13.9M
Bit Rate : 324k
Sample Encoding: MPEG audio (layer I, II or III)
Comments :
Title=Retrograde
Artist=Kairon; IRSE
Album=Polysomn
Tracknumber=02/09
Year=2020
Genre=Shoegaze



Register


Thanks:
Go to the top of the page
  Insert nick Quick quote
+Quote Post

Reply to this topicStart new topic
1 User(s) are reading this topic (1 Guests and 0 Anonymous Users)
0 Members:

 



- Lo-Fi Version Support form
Copyrights and abuse reports form
Time is now: 29th May 2022 - 13:02:05