Welcome Guest ( Log In | Register )

> Morgreim - Forgotten Tales (2022), Atmospheric Black/Folk Metal
post Mar 30 2022, 13:46:35
Post #1

Правь статус, ####!111
**************
Group: Металариец
Posts: 31,377
Releases: 23137
From: Г.Харьков
On Forums: 10 years 8 months
Thanks: 486734 time(s)
Ukraine


(IMG:https://metalarea.org/images/audiocovers/2022_Mar/acov_tid362889_thumb.jpg)

*Artist: Morgreim
*Album: Forgotten Tales
*Year: 2022
*Genre: Atmospheric Black/Folk Metal
*Country: Poland (IMG:https://metalarea.org/forum/style_images/flags/Poland.png)
*Format: mp3@CBR320kbps
*Size: 86MB

Tracklist:
1. Lonely Traveller 05:17
2. King of the Forest Depths 04:40
3. In the Glade of Prophetic Dreams 03:35
4. Forlorn Lands 04:50
5. Royal Ring 05:22
6. Sailing the Misty Seas 02:03
7. Path of the Star 05:50
8. River of Time 05:33
******************************
Total playing time: 37:10



Technical info
(IMG:https://metalarea.org/images/spectrogram/2022_Mar/aabbc33926ba0d084089d2453798d8d4.png)
Input File: 07 - Path of the Star.mp3
Channels : 2
Sample Rate : 44100
Precision : 16-bit
Duration : 00:05:50.97 = 15477953 samples = 26323 CDDA sectors
File Size : 14.2M
Bit Rate : 324k
Sample Encoding: MPEG audio (layer I, II or III)
Comments :
Title=Path of the Star
Artist=Morgreim
Album=Forgotten Tales
Tracknumber=7/8
Year=2022



Register


Go to the top of the page
  Insert nick Quick quote
+Quote Post
 
Start new topic
Replies (1 - 6)
post Apr 4 2022, 08:14:00
Post #2

Восемь Литров
********
Group: Металариец
Posts: 861
Releases: 2
From: Murmansk
On Forums: 13 years 5 months
Thanks: 493 time(s)
Russian Federation


Мне интересно: релизер вообще слушал что он выкладывал? Какой блек метал, где и как? Это эпик чистой воды с фолковыми элементами и пауэр метал аранжировками по клавишам и барабанам. Местами даже напоминает найтвиш времен первых двух альбомов. Опять же на вокале девушка, поет чистым. Не обнаружил здесь никаких следов черного метала даже близко. Музыка в целом ничего, но веет какой-то рапсоди оф фая, только с другой подачей.


Thanks:
Go to the top of the page
  Insert nick Quick quote
+Quote Post
post Apr 4 2022, 13:17:31
Post #3

Austenite
**************
Group: Металариец
Posts: 3,183
Releases: 1
From: Менск
On Forums: 12 years 2 months
Thanks: 1457 time(s)
Madagascar


Nice Fantasy ABM, smells like Forgotten Realms
Go to the top of the page
  Insert nick Quick quote
+Quote Post
post Apr 4 2022, 13:19:18
Post #4

Правь статус, ####!111
**************
Group: Металариец
Posts: 52,651
Releases: 967
On Forums: 13 years 8 months
Thanks: 49442 time(s)
Russian Federation


Обложка дюже хороша.
Go to the top of the page
  Insert nick Quick quote
+Quote Post
post Apr 4 2022, 13:26:32
Post #5
BAN
Banned till
Feb 21 2023, 18:09:43



ЦИТАТА(Storky @ 4th April 2022 - 15:17:31) *
Nice Fantasy ABM, smells like Forgotten Realms

Почему на английском?

ЦИТАТА(Tormentor6 @ 4th April 2022 - 10:14:00) *
Местами даже напоминает найтвиш времен первых двух альбомов.

Блин, слушать теперь...
Go to the top of the page
  Insert nick Quick quote
+Quote Post
post Apr 11 2022, 11:58:09
Post #6

Group: Подсевший
Posts: 27
Releases: 0
On Forums: 12 years 5 months
Thanks: 3 time(s)
France


Sounds like Summoning and early Nightwish together, some early Amorphis in the keyboards too. Interesting!
Go to the top of the page
  Insert nick Quick quote
+Quote Post
post May 28 2022, 03:16:40
Post #7

i listen to black metal
**************
Group: Металариец
Posts: 3,500
Releases: 145
From: Москва
On Forums: 16 years 1 month
Thanks: 2478 time(s)
Russian Federation


ЦИТАТА(Tormentor6 @ Apr 4 2022, 10:14:00) *
Мне интересно: релизер вообще слушал что он выкладывал? Какой блек метал, где и как?

не парься - этот админ славится этим (IMG:style_emoticons/default/crazy.gif)
Go to the top of the page
  Insert nick Quick quote
+Quote Post

Reply to this topicStart new topic
2 User(s) are reading this topic (2 Guests and 0 Anonymous Users)
0 Members:

 



- Lo-Fi Version Support form
Copyrights and abuse reports form
Time is now: 1st February 2023 - 11:16:30