Welcome Guest ( Log In | Register )

> Dodmorke - Incredible Love (2022), Raw Black Metal
post Apr 6 2022, 11:59:56
Post #1

Правь статус, ####!111
**************
Group: Металариец
Posts: 51,960
Releases: 957
On Forums: 13 years 6 months
Thanks: 48772 time(s)
Russian Federation


(IMG:https://metalarea.org/images/audiocovers/2022_Apr/acov_tid363203_thumb.jpg)

*Artist: Dodmorke
*Album: Incredible Love
*Year: 2022
*Genre: Raw Black Metal
*Country: Russian Federation (IMG:https://metalarea.org/forum/style_images/flags/Russian%20Federation.png)
*Format: mp3@CBR320kbps
*Size: 102MB

Tracklist:
1. We Do What We Must 04:38
2. Kharabas Bharabas 03:24
3. Everyone 05:03
4. Fucking Wizards 02:14
5. Holy Locust 04:16
6. At Your Funeral 03:34
7. Pigs In Hell 04:43
8. You Fuck Not A Living Corpse 04:09
9. Dream 05:10
10. The Way 05:02
******************************
Total playing time: 42:13



Technical info
(IMG:https://metalarea.org/images/spectrogram/2022_Apr/9232cb028598175a1e28c8f6d7da572a.png)
Input File: Dodmorke - Incredible Love - 01 We Do What We Must.mp3
Channels : 2
Sample Rate : 44100
Precision : 16-bit
Duration : 00:04:38.72 = 12291332 samples = 20903.6 CDDA sectors
File Size : 11.3M
Bit Rate : 325k
Sample Encoding: MPEG audio (layer I, II or III)
Comments :
Title=We Do What We Must
Artist=Dodmorke
Album=Incredible Love
Tracknumber=1
Year=2022



Register


Go to the top of the page
  Insert nick Quick quote
+Quote Post
 
Start new topic
Replies (1 - 7)
post Apr 7 2022, 09:04:02
Post #2

Правь статус, ####!111
**************
Group: Металариец
Posts: 51,960
Releases: 957
On Forums: 13 years 6 months
Thanks: 48772 time(s)
Russian Federation


Проект Жени Пильникова из Wintaar.
Go to the top of the page
  Insert nick Quick quote
+Quote Post
post Apr 7 2022, 09:40:21
Post #3

Маньяк
**********
Group: Металариец
Posts: 1,088
Releases: 5
On Forums: 3 years 5 months
Thanks: 866 time(s)
Russian Federation


Братишке послушать принесли.


Go to the top of the page
  Insert nick Quick quote
+Quote Post
post Apr 7 2022, 12:16:02
Post #4

Два Литра
**
Group: Завсегдатай
Posts: 104
Releases: 0
On Forums: 11 months 1 day
Thanks: 27 time(s)
Russian Federation


последняя песня — про группу «путь»
Go to the top of the page
  Insert nick Quick quote
+Quote Post
post Apr 7 2022, 12:21:30
Post #5

Четыре Литра
****
Group: Металариец
Posts: 359
Releases: 0
From: Калуга
On Forums: 4 years 10 months
Thanks: 118 time(s)
Russian Federation


ЦИТАТА(apries @ Apr 7 2022, 12:16:02) *
последняя песня — про группу «путь»

это утверждение?
Go to the top of the page
  Insert nick Quick quote
+Quote Post
post Apr 7 2022, 17:18:08
Post #6

Trickster
Group Icon
Group: V.I.P
Posts: 5,238
Releases: 319
On Forums: 11 years 9 months
Thanks: 13989 time(s)
Russian Federation


rominow, Это если текст на Bandcamp почитать.
Go to the top of the page
  Insert nick Quick quote
+Quote Post
post Apr 7 2022, 18:32:23
Post #7

Два Литра
**
Group: Завсегдатай
Posts: 104
Releases: 0
On Forums: 11 months 1 day
Thanks: 27 time(s)
Russian Federation


ЦИТАТА(rominow @ Apr 7 2022, 16:21:30) *
это утверждение?

евгений андреевич в подкасте сам сказал.
Go to the top of the page
  Insert nick Quick quote
+Quote Post
post Apr 9 2022, 21:31:58
Post #8

кручу наждак
**************
Group: Металариец
Posts: 5,805
Releases: 107
From: Самара
On Forums: 12 years 6 months
Thanks: 4550 time(s)
Russian Federation


Отмороженная ро-панкуха. В расширенный топ года.
Go to the top of the page
  Insert nick Quick quote
+Quote Post

Reply to this topicStart new topic
1 User(s) are reading this topic (1 Guests and 0 Anonymous Users)
0 Members:

 



- Lo-Fi Version Support form
Copyrights and abuse reports form
Time is now: 3rd December 2022 - 16:10:08