Welcome Guest ( Log In | Register )

> И неформату есть предел.

Рэп/хип-хоп/шансон/поп удаляются. Для них есть свои порталы.

> Nyiþ - ᛬ᚢᛁᛋᚿᛁ•ᚼᛆᛏᛁ•ᚼᚱᛅ᛬ [compilation] (2022), Ritual Dark Ambient
post May 21 2022, 10:35:10
Post #1

...
**************
Group: Металариец
Posts: 2,126
Releases: 18
On Forums: 12 years 7 months
Thanks: 4480 time(s)
Unknown


(IMG:http://metalarea.org/images/audiocovers/2022_May/acov_tid365078_thumb.jpg)

*Artist: NYIÞ
*Album: ᛬ᚢᛁᛋᚿᛁ•ᚼᛆᛏᛁ•ᚼᚱᛅ᛬ [compilation]
*Year: 2022
*Genre: Ritual Dark Ambient
*Country: Iceland (IMG:http://metalarea.org/forum/style_images/flags/Iceland.png)
*Format: mp3@CBR320kbps
*Size: 240MB

Tracklist:
1. Decompose 08:15
2. NYIÞ 12:39
3. Lilith 08:25
4. Angurboði 02:44
5. Til Eru Hræ 03:59
6. Fjörbrot 10:44
7. Rún 11:46
8. Hati þá Guð Og Helgir Englar Allir 13:32
9. Að Engu Gjört 14:00
10. Rót 09:07
11. Iða 08:38
******************************
Total playing time: 1:43:49



Extended info
Elusive Icelandic stalwarts NYIÞ present "᛬ᚢᛁᛋᚿᛁ•ᚼᛆᛏᛁ•ᚼᚱᛅ᛬". We've collected NYIÞ's (pronounced Neeth) first four releases from 2011 to 2019; a trilogy of tapes and material from a split album, into a unique whole. Cohesion is woven throughout the tape trilogy by a thread of curse-poetry. "Til eru hræ sem hafa aldrei verið menn og munu aldrei verða þó þau lifi enn" is a perversion of a nationally beloved poem on death acceptance. "Hati þá guð og helgir englar allir" is an invocation from a 17th century grimoire, petitioning God, alongside a multitude of other natural and super-natural entities, to hate the utterer's enemies. "Visni þitt hold svo betur megi hæfa þeim hug sem það hýsir" is a toast to the misfortune of the most deserving; literally 'Thy flesh wither, the better to suit the mind it houses'. "Caput Mortum", the final release represented in this anthology, breaks thematically with the preceding tape trilogy. Inward-looking and devoid of lyrical content, its two offerings, whose titles may be translated as Root and Maelstrom respectively, allude to sub-surface phenomena, stability and churning chaos. Artwork by Heresie.
Издание Cyclic Law


Technical info
(IMG:http://metalarea.org/images/spectrogram/2022_May/23900a95c96fe0e179f38d36e37eac18.png)
Input File: 04 - Angurboði.mp3
Channels : 2
Sample Rate : 48000
Precision : 16-bit
Duration : 00:02:43.58 = 7852032 samples ~ 12268.8 CDDA sectors
File Size : 6.79M
Bit Rate : 332k
Sample Encoding: MPEG audio (layer I, II or III)
Comments :
Title=Angurboði
Artist=NYIÞ
Album=᛬ᚢᛁᛋᚿᛁ•ᚼᛆᛏᛁ•ᚼᚱᛅ᛬
Tracknumber=04
Year=2021
Genre=Ritual Dark Ambient



Register


Go to the top of the page
  Insert nick Quick quote
+Quote Post
 
Start new topic
Replies (1 - 2)
post May 22 2022, 10:31:23
Post #2

####!111
**************
Group: Металариец
Posts: 4,652
Releases: 141
From: The Mountain Of DOOM
On Forums: 14 years 8 months
Thanks: 6708 time(s)
Russian Federation


Тут по большей части гитарный Drone
Go to the top of the page
  Insert nick Quick quote
+Quote Post
post May 22 2022, 10:46:55
Post #3

Void
******
Group: Металариец
Posts: 645
Releases: 8
On Forums: 15 years 1 month
Thanks: 749 time(s)
Antarctica


отличная группа, кстати (IMG:style_emoticons/default/27.gif)


Thanks:
(1) ent404,
Go to the top of the page
  Insert nick Quick quote
+Quote Post

Reply to this topicStart new topic
1 User(s) are reading this topic (1 Guests and 0 Anonymous Users)
0 Members:

 



- Lo-Fi Version Support form
Copyrights and abuse reports form
Time is now: 6th July 2022 - 17:10:17