Welcome Guest ( Log In | Register )

> И неформату есть предел.

Рэп/хип-хоп/шансон/поп удаляются. Для них есть свои порталы.

> Iced Earth - A Narrative Soundscape (2022), Power/Thrash Metal (D)
post May 23 2022, 10:32:36
Post #1

Join my religion, or die
**************
Group: Металариец
Posts: 11,153
Releases: 1809
From: Питера
On Forums: 12 years 9 months
Thanks: 23960 time(s)
Russian Federation


(IMG:https://metalarea.org/images/audiocovers/2022_May/acov_tid365132_thumb.jpg)

*Artist: Iced Earth
*Album: A Narrative Soundscape
*Year: 2022
*Genre: Power/Thrash Metal
*Country: United States (IMG:https://metalarea.org/forum/style_images/flags/United%20States.png)
*Format: mp3@CBR320kbps
*Size: 163MB

Tracklist:
01. Dystopia (A Narrative Soundscape) 06:06
02. Declaration Day (A Narrative Soundscape) 03:03
03. Wolf (A Narrative Soundscape) 02:23
04. Dante's Inferno (A Narrative Soundscape) 09:55
05. Melancholy (A Narrative Soundscape) 02:43
06. Dracula (A Narrative Soundscape) 04:12
07. Raven Wing (A Narrative Soundscape) 04:22
08. Angels Holocaust (A Narrative Soundscape) 02:09
09. The Clouding (A Narrative Soundscape) 06:13
10. Something Wicked (A Narrative Soundscape) 11:46
11. Watching Over Me (A Narrative Soundscape) 02:26
12. Seven Headed Whore (A Narrative Soundscape) 01:49
13. Damien (A Narrative Soundscape) 06:56
14. Question of Heaven (A Narrative Soundscape) 06:00
15. Come What May (A Narrative Soundscape) 03:44
******************************
Total playing time: 1:13:47

Extended info
Jon Schaffer выпустил какую-то херню под вывеской ICED EARTH
На лейбле Ravencraft Productions был выпущен диск A Narrative Soundscape, представляющих собой художественное — с придыханием — начитывание текстов ICED EARTH под незамысловатые саундтрековые аранжировки. Идея — изобразить лирическое творчество Джона в новом свете.
«Я хотел собрать все воедино и создать нечто особое, представлявшее бы уникальный опыт не только для фанатов моих коллективов, но также и для новых слушателей».
Смотрите сами, нужна ли вам эта херня



Technical info
(IMG:https://metalarea.org/images/spectrogram/2022_May/22595116a37ed1631ab0c8cde8da6c5f.png)
Input File: 02 Declaration Day (A Narrative Soundscape).mp3
Channels : 2
Sample Rate : 44100
Precision : 16-bit
Duration : 00:03:03.00 = 8070300 samples = 13725 CDDA sectors
File Size : 7.47M
Bit Rate : 327k
Sample Encoding: MPEG audio (layer I, II or III)
Comments :
Title=Declaration Day (A Narrative Soundscape)
Artist=Iced Earth
Album=2022 A Narrative Soundscape
Tracknumber=02/15
Year=2022



Register


Go to the top of the page
  Insert nick Quick quote
+Quote Post
 
Start new topic
Replies (1 - 9)
post May 23 2022, 12:59:51
Post #2

\m/
Group Icon
Group: S-moderation team
Posts: 8,047
Releases: 19
From: Петропавловск-Камчатский
On Forums: 13 years 3 weeks
Thanks: 8250 time(s)
Russian Federation


По превью - неформат. Остальные песни также?


Thanks:
Go to the top of the page
  Insert nick Quick quote
+Quote Post
post May 23 2022, 13:32:28
Post #3

Join my religion, or die
**************
Group: Металариец
Posts: 11,153
Releases: 1809
From: Питера
On Forums: 12 years 9 months
Thanks: 23960 time(s)
Russian Federation


ЦИТАТА(DarkHorde @ May 23 2022, 14:59:51) *
По превью - неформат. Остальные песни также?

Если это можно назвать песнями, то да (IMG:style_emoticons/default/15.gif)
Go to the top of the page
  Insert nick Quick quote
+Quote Post
post May 23 2022, 14:29:11
Post #4

necrophilosopher
**********
Group: Металариец
Posts: 1,127
Releases: 0
From: Ад-на-Земле
On Forums: 13 years 6 months
Thanks: 1032 time(s)
Uzbekistan


Это не Enter The Realm, это A Narrative Soundscape. Причём это и на обложке написано.


Thanks:
(1) Occultas,
Go to the top of the page
  Insert nick Quick quote
+Quote Post
post May 23 2022, 15:08:48
Post #5

И Ван Дамм По Делам Вашим!
**************
Group: Металариец
Posts: 20,359
Releases: 26
On Forums: 14 years 6 days
Thanks: 11527 time(s)
Honduras


В отличии от Бурзум,ему в тюряге не дали инструмент? А нет, клавиши все таки передали) Он же вроде срок мотать должен?
Go to the top of the page
  Insert nick Quick quote
+Quote Post
post May 24 2022, 07:03:14
Post #6

Join my religion, or die
**************
Group: Металариец
Posts: 11,153
Releases: 1809
From: Питера
On Forums: 12 years 9 months
Thanks: 23960 time(s)
Russian Federation


ЦИТАТА(Lux @ May 23 2022, 16:29:11) *
Это не Enter The Realm, это A Narrative Soundscape. Причём это и на обложке написано.

Да это я ошибся просто
Go to the top of the page
  Insert nick Quick quote
+Quote Post
post May 24 2022, 08:07:38
Post #7

Семь Литров
*******
Group: Металариец
Posts: 754
Releases: 0
From: Нижний Новгород
On Forums: 12 years 8 months
Thanks: 182 time(s)
Russian Federation


Jon Schaffer выпустил какую-то фигню под вывеской ICED EARTH ©
Go to the top of the page
  Insert nick Quick quote
+Quote Post
post May 24 2022, 10:07:01
Post #8

Join my religion, or die
**************
Group: Металариец
Posts: 11,153
Releases: 1809
From: Питера
On Forums: 12 years 9 months
Thanks: 23960 time(s)
Russian Federation


ЦИТАТА(CTPEMLEHIE @ May 24 2022, 10:07:38) *
Jon Schaffer выпустил какую-то фигню под вывеской ICED EARTH ©

Фигня мне показалась не достаточно точным словом (IMG:style_emoticons/default/15.gif)
Go to the top of the page
  Insert nick Quick quote
+Quote Post
post May 24 2022, 15:38:12
Post #9

бутылка кефира полбатона
**********
Group: Металариец
Posts: 1,164
Releases: 0
From: Курганская обл., Шадринск
On Forums: 13 years 4 months
Thanks: 375 time(s)
Russian Federation


эх, CoF в таком исполнении я бы послушал


Thanks:
(1) dafya328,
Go to the top of the page
  Insert nick Quick quote
+Quote Post
post May 24 2022, 20:44:18
Post #10

грызущие вместе
******
Group: Металариец
Posts: 591
Releases: 0
From: Moscow/MO
On Forums: 15 years 7 months
Thanks: 206 time(s)
Russian Federation


В графе жанр стоит указать "Trailer music"
Go to the top of the page
  Insert nick Quick quote
+Quote Post

Reply to this topicStart new topic
1 User(s) are reading this topic (1 Guests and 0 Anonymous Users)
0 Members:

 



- Lo-Fi Version Support form
Copyrights and abuse reports form
Time is now: 6th July 2022 - 17:40:51