Welcome Guest ( Log In | Register )

> И неформату есть предел.

Рэп/хип-хоп/шансон/поп удаляются. Для них есть свои порталы.

> Def Leppard - Diamond Star Halos (2022), Hard Rock (D16)
post May 25 2022, 17:01:48
Post #1

Правь статус, ####!111
**************
Group: Металариец
Posts: 2,978
Releases: 1515
On Forums: 11 years 7 months
Thanks: 29800 time(s)
Russian Federation


(IMG:https://metalarea.org/images/audiocovers/2022_May/acov_tid365221_thumb.jpg)

*Artist: Def Leppard
*Album: Diamond Star Halos
*Year: 2022
*Genre: Hard Rock
*Country: United Kingdom (IMG:https://metalarea.org/forum/style_images/flags/United%20Kingdom.png)
*Format: mp3@CBR271kbps
*Size: 133MB

Tracklist:
01.Take What You Want 04:14
02.Kick 03:42
03.Fire It Up 3:19
04.This Guitar (feat. Alison Krauss) 03:50
05.SOS Emergency 03:25
06.Liquid Dust 04:01
07.U Rok Mi 03:33
08.Goodbye For Good This Time 04:27
09.All We Need 04:46
10.Open Your Eyes 04:19
11.Gimme A Kiss 03:12
12.Angels (Can’t Help You Now) 04:57
13.Lifeless (feat. Alison Krauss) 04:19
14.Unbreakable 03:46
15.From Here To Eternity 05:37
16.Goodbye For Good This Time (Avant-garde Mix) 04:35
17.Lifeless (Joe Only Version) 04:22
******************************
Total playing time: 1:10:24

(IMG:https://metalarea.org/images/youtube.png)

Extended info
Limited Edition - scene CD Rip


Technical info
(IMG:https://metalarea.org/images/spectrogram/2022_May/85a7d7e7ab0abf947f378c559edee673.png)
Input File: 03_def_leppard_-_fire_it_up.mp3
Channels : 2
Sample Rate : 44100
Precision : 16-bit
Duration : 00:03:19.58 = 8801258 samples = 14968.1 CDDA sectors
File Size : 6.86M
Bit Rate : 275k
Sample Encoding: MPEG audio (layer I, II or III)
Comments :
Title=Fire It Up
Artist=Def Leppard
Album=Diamond Star Halos
Tracknumber=3/17
Year=2022
Genre=Hard Rock



Register


Go to the top of the page
  Insert nick Quick quote
+Quote Post
 
Start new topic
Replies (1 - 6)
post May 25 2022, 17:33:37
Post #2

Правь статус, ####!111
**************
Group: Металариец
Posts: 51,011
Releases: 935
On Forums: 13 years 1 month
Thanks: 47695 time(s)
Russian Federation


О, ещё одни дяназавры гока стрельнули новьём.

Cовсем скоро Миша Шенкер ещё должен разрадица.
Go to the top of the page
  Insert nick Quick quote
+Quote Post
post May 28 2022, 17:21:48
Post #3

Шесть Литров
******
Group: Металариец
Posts: 569
Releases: 0
From: Ташкент
On Forums: 14 years 4 months
Thanks: 184 time(s)
Uzbekistan


На одном дыхании прослушал альбом. Отлично! Хотя я никогда не был ярым поклонником Def Leppard, но мне альбом очень понравился.


Thanks:
(2) CRUNCH, Ingvar,
Go to the top of the page
  Insert nick Quick quote
+Quote Post
post May 28 2022, 19:28:19
Post #4
BAN
Banned till
Aug 17 2022, 15:38:53



ЦИТАТА(vosmidesijatye @ May 25 2022, 17:33:37) *
О, ещё одни дяназавры гока стрельнули новьём.

Cовсем скоро Миша Шенкер ещё должен разрадица.

Его мишА тебе в рот не влезет (IMG:style_emoticons/default/22.gif)


Thanks:
Go to the top of the page
  Insert nick Quick quote
+Quote Post
post Jun 1 2022, 23:02:43
Post #5

Dark Ambient Shoujo
**********
Group: Металариец
Posts: 1,436
Releases: 4
On Forums: 13 years 6 months
Thanks: 937 time(s)
Russian Federation


ЦИТАТА(JPV @ 28th May 2022 - 19:21:48) *
На одном дыхании прослушал альбом. Отлично! Хотя я никогда не был ярым поклонником Def Leppard, но мне альбом очень понравился.

А я вот, кстати, очень люблю их творчество из 80-х. А вот без этой пластинки Земля бы точно не сошла с орбиты.
Go to the top of the page
  Insert nick Quick quote
+Quote Post
post Jun 3 2022, 11:34:00
Post #6

21st Century Schizoid Man
**************
Group: Металариец
Posts: 7,319
Releases: 90
From: Pirate Bay
On Forums: 14 years 2 months
Thanks: 6212 time(s)
Liberia


Не разучились писать песни, но сильно не хватает хуковости - того, что они прекрасно делали на альбомах 80-х. В данном случае ну в основном сироп, фоновая музыка. Понравилась только одна песня (Gimme A Kiss) с риффом, который напоминает их старенькое.
Go to the top of the page
  Insert nick Quick quote
+Quote Post
post Jun 26 2022, 21:15:51
Post #7

MDM-Thrash Metal
**************
Group: Металариец
Posts: 11,202
Releases: 1525
From: Одесса
On Forums: 14 years 10 months
Thanks: 36253 time(s)
Ukraine


Ну что сказать, мелодичный красивый альбом,но явно не дотягивающий до старых леопардовских релизов. На ценителя не больше... Предыдущий был на голову сильнее и интереснее.
Go to the top of the page
  Insert nick Quick quote
+Quote Post

Reply to this topicStart new topic
1 User(s) are reading this topic (1 Guests and 0 Anonymous Users)
0 Members:

 



- Lo-Fi Version Support form
Copyrights and abuse reports form
Time is now: 6th July 2022 - 07:33:43