Welcome Guest ( Log In | Register )

> И неформату есть предел.

Рэп/хип-хоп/шансон/поп удаляются. Для них есть свои порталы.

 
Reply to this topicStart new topic
> Shrine - Nausicaä (2022), Dark Ambient/Drone (D12)
post May 26 2022, 07:46:18
Post #1

практики шума одухотворяющего
**************
Group: Металариец
Posts: 3,452
Releases: 119
From: хроник дисмембера
On Forums: 4 years 5 months
Thanks: 5333 time(s)
Russian Federation


(IMG:https://metalarea.org/images/audiocovers/2022_May/acov_tid365243_thumb.jpg)

*Artist: Shrine
*Album: Nausicaä
*Year: 2022
*Genre: Dark Ambient/Drone
*Country: Bulgaria (IMG:https://metalarea.org/forum/style_images/flags/Bulgaria.png)
*Format: mp3@CBR320kbps
*Size: 119MB

Tracklist:
1.Seven Days of Fire 06:17
2.Twilight of Man 06:20
3.Daikaisho 07:24
4.Into The Periphery 03:15
5.Like a God of Death 07:19
6.Extinction 07:05
7.The Prophecy 06:40
8.A World Reborn 07:45
******************************
Total playing time: 52:05



Technical info
(IMG:https://metalarea.org/images/spectrogram/2022_May/02d21e1f9c557e9bf5a99f85bf400e10.png)
Input File: 02. Twilight of Man.mp3
Channels : 2
Sample Rate : 44100
Precision : 16-bit
Duration : 00:06:20.24 = 16768408 samples = 28517.7 CDDA sectors
File Size : 15.5M
Bit Rate : 325k
Sample Encoding: MPEG audio (layer I, II or III)
Comments :
Title=Twilight of Man
Artist=Shrine
Album=Nausicaä
Tracknumber=2/8
Year=2022
Genre=Electro



Register


Go to the top of the page
  Insert nick Quick quote
+Quote Post

Reply to this topicStart new topic
1 User(s) are reading this topic (1 Guests and 0 Anonymous Users)
0 Members:

 



- Lo-Fi Version Support form
Copyrights and abuse reports form
Time is now: 6th July 2022 - 08:34:46