Welcome Guest ( Log In | Register )

> И неформату есть предел.

Рэп/хип-хоп/шансон/поп удаляются. Для них есть свои порталы.

> Sex Pistols - The Original Recordings [compilation] (2022), Punk/Rock
post May 26 2022, 16:03:10
Post #1

Правь статус, ####!111
**************
Group: Металариец
Posts: 2,978
Releases: 1516
On Forums: 11 years 7 months
Thanks: 29804 time(s)
Russian Federation


(IMG:https://metalarea.org/images/audiocovers/2022_May/acov_tid365277_thumb.jpg)

*Artist: Sex Pistols
*Album: The Original Recordings [compilation]
*Year: 2022
*Genre: Punk/Rock
*Country: United Kingdom (IMG:https://metalarea.org/forum/style_images/flags/United%20Kingdom.png)
*Format: mp3@CBR320kbps
*Size: 155MB

Tracklist:
01.Pretty Vacant 03:17
02.God Save The Queen 03:19
03.Bodies 03:03
04.No Feelings 02:51
05.I Wanna Be Me 03:03
06.Anarchy In The UK 03:32
07.Submission 04:13
08.No Fun 06:22
09.(I'm Not Your) Stepping Stone 03:06
10.Holidays In The Sun 03:23
11.New York 03:03
12.Problems 04:11
13.Lonely Boy 03:01
14.Silly Thing 02:51
15.Something Else 02:10
16.C'Mon Everybody 01:55
17.Satellite 03:58
18.Did You No Wrong 03:10
19.Substitute 03:03
20.My Way 04:05
******************************
Total playing time: 1:07:36

Extended info
CD Rip


Technical info
(IMG:https://metalarea.org/images/spectrogram/2022_May/2ea363da718d2dad07f16c4b135cbce2.png)
Input File: 04 - No Feelings.mp3
Channels : 2
Sample Rate : 44100
Precision : 16-bit
Duration : 00:02:51.04 = 7542688 samples = 12827.7 CDDA sectors
File Size : 7.65M
Bit Rate : 358k
Sample Encoding: MPEG audio (layer I, II or III)
Comments :
Title=No Feelings
Artist=Sex Pistols
Album=The Original Recordings
Tracknumber=04
Year=2022
Genre=Punk/Rock



Register


Go to the top of the page
  Insert nick Quick quote
+Quote Post
 
Start new topic
Replies (1 - 6)
post May 26 2022, 17:15:06
Post #2

Правь статус, ####!111
**************
Group: Металариец
Posts: 51,011
Releases: 935
On Forums: 13 years 1 month
Thanks: 47696 time(s)
Russian Federation


Скоро кино про них выходит. Ждем.

Панки хооооой!!!!!
Go to the top of the page
  Insert nick Quick quote
+Quote Post
post May 26 2022, 17:33:13
Post #3

brutalcesar
**************
Group: Металариец
Posts: 18,399
Releases: 75
From: Рязань
On Forums: 13 years 5 months
Thanks: 10681 time(s)
Russian Federation


И это сегодня?! Ну просто день X (IMG:style_emoticons/default/crazy.gif)
Go to the top of the page
  Insert nick Quick quote
+Quote Post
post May 26 2022, 18:02:18
Post #4

Правь статус, ####!111
**************
Group: Металариец
Posts: 3,129
Releases: 0
From: Москва
On Forums: 14 years 4 months
Thanks: 503 time(s)
Russian Federation


Это какой по счёту сборник из полутора их альбомов ?

ЦИТАТА(vosmidesijatye @ May 26 2022, 19:15:06) *
Скоро кино про них выходит. Ждем.

Панки хооооой!!!!!


Джону Лайдону он вроде не понравился .
Go to the top of the page
  Insert nick Quick quote
+Quote Post
post May 26 2022, 18:56:35
Post #5

Правь статус, ####!111
**************
Group: Металариец
Posts: 51,011
Releases: 935
On Forums: 13 years 1 month
Thanks: 47696 time(s)
Russian Federation


ЦИТАТА(DMIYUR @ May 26 2022, 20:02:18) *
Это какой по счёту сборник из полутора их альбомов ?
Джону Лайдону он вроде не понравился .


Да этим музыкантишкам часто кинчики про них не нравица, но хрен то с ними, все одно смотрим)
Go to the top of the page
  Insert nick Quick quote
+Quote Post
post May 26 2022, 20:51:55
Post #6

Котеги! Нравяцо котеги?
**************
Group: Металариец
Posts: 7,417
Releases: 0
From: Терра Инкогнита
On Forums: 12 years 1 month
Thanks: 3539 time(s)
Russian Federation


никогда их не слышал, повод причаститься (IMG:style_emoticons/default/smile4.gif)


Thanks:
(1) Occultas,
Go to the top of the page
  Insert nick Quick quote
+Quote Post
post May 26 2022, 22:09:43
Post #7

brutalcesar
**************
Group: Металариец
Posts: 18,399
Releases: 75
From: Рязань
On Forums: 13 years 5 months
Thanks: 10681 time(s)
Russian Federation


ЦИТАТА(DMIYUR @ May 26 2022, 20:02:18) *
Это какой по счёту сборник из полутора их альбомов ?

По последней инфе этот самый классный! (IMG:style_emoticons/default/crazy.gif)


Thanks:
(1) Occultas,
Go to the top of the page
  Insert nick Quick quote
+Quote Post

Reply to this topicStart new topic
1 User(s) are reading this topic (1 Guests and 0 Anonymous Users)
0 Members:

 



- Lo-Fi Version Support form
Copyrights and abuse reports form
Time is now: 6th July 2022 - 08:03:47