Welcome Guest ( Log In | Register )

> Severe Torture - Fisting The Sockets [ep] (2022), Death Metal (D)
post Jun 8 2022, 11:05:56
Post #1

Правь статус, ####!111
**************
Group: Металариец
Posts: 30,879
Releases: 22759
From: Г.Харьков
On Forums: 10 years 6 months
Thanks: 476218 time(s)
Unknown


(IMG:https://metalarea.org/images/audiocovers/2022_Jun/acov_tid365799_thumb.jpg)

*Artist: Severe Torture
*Album: Fisting The Sockets [ep]
*Year: 2022
*Genre: Death Metal
*Country: Netherlands (IMG:https://metalarea.org/forum/style_images/flags/Netherlands.png)
*Format: mp3@CBR320kbps
*Size: 32MB

Tracklist:
1. Fisting the Sockets 04:34
2. Entangled in Hate 04:00
3. Hands and Head Not Found 05:19
******************************
Total playing time: 13:53




Extended info
Patrick Boleij Bass
Thijs van Laarhoven Guitars
Dennis Schreurs Vocals
Marvin Vriesde Guitars
Damiën Kerpentier Drums


Technical info
(IMG:https://metalarea.org/images/spectrogram/2022_Jun/855cf7118eee5e233ee069161f7e5720.png)
Input File: 02. Entangled in Hate.mp3
Channels : 2
Sample Rate : 44100
Precision : 16-bit
Duration : 00:04:00.11 = 10588719 samples = 18008 CDDA sectors
File Size : 9.60M
Bit Rate : 320k
Sample Encoding: MPEG audio (layer I, II or III)
Comments :
Title=Entangled in Hate
Artist=Severe Torture
Album=Fisting the Sockets
Tracknumber=02
Year=2022
Genre=Technical Death



Register


Go to the top of the page
  Insert nick Quick quote
+Quote Post
 
Start new topic
Replies (1 - 9)
post Jun 8 2022, 17:53:36
Post #2

Group: Подсевший
Posts: 30
Releases: 0
On Forums: 1 year 7 months
Thanks: 24 time(s)
Russian Federation


Крутая группа ,технично все, как всегда .


Thanks:
(1) judaz,
Go to the top of the page
  Insert nick Quick quote
+Quote Post
post Jun 8 2022, 18:24:03
Post #3

Маньяк
**********
Group: Металариец
Posts: 1,283
Releases: 15
From: RU
On Forums: 12 years 9 months
Thanks: 1343 time(s)
Russian Federation


12 лет, опупеть можно, не растеряли запала как ни странно


Thanks:
(1) judaz,
Go to the top of the page
  Insert nick Quick quote
+Quote Post
post Jun 8 2022, 19:31:56
Post #4

кручу наждак
**************
Group: Металариец
Posts: 5,800
Releases: 107
From: Самара
On Forums: 12 years 6 months
Thanks: 4548 time(s)
Russian Federation


Красавцы. ЛП будет?
Go to the top of the page
  Insert nick Quick quote
+Quote Post
post Jun 8 2022, 20:45:54
Post #5

Мегаманьяк
***********
Group: Металариец
Posts: 1,566
Releases: 569
From: Саранск
On Forums: 11 years 6 months
Thanks: 5763 time(s)
Russian Federation


ЦИТАТА(judaz @ Jun 8 2022, 21:31:56) *
Красавцы. ЛП будет?

В 2023 будет.


Thanks:
(1) judaz,
Go to the top of the page
  Insert nick Quick quote
+Quote Post
post Jun 9 2022, 08:53:37
Post #6

.
**************
Group: Металариец
Posts: 2,575
Releases: 2
On Forums: 14 years 5 months
Thanks: 8415 time(s)
Unknown


320
Register

Register

Register


Go to the top of the page
  Insert nick Quick quote
+Quote Post
post Jun 9 2022, 11:16:02
Post #7

Два Литра
**
Group: Завсегдатай
Posts: 132
Releases: 0
From: Одесса
On Forums: 13 years 6 months
Thanks: 37 time(s)
Ukraine


Жаль что ЕР, давно ждем-с
Go to the top of the page
  Insert nick Quick quote
+Quote Post
post Jun 9 2022, 12:43:35
Post #8

Group: Подсевший
Posts: 32
Releases: 0
From: Gdańsk
On Forums: 9 years 11 months
Thanks: 6 time(s)
Poland


Шикарная доставка, но они теперь стали не Brutal Death Metal, а только Death Metal?
Go to the top of the page
  Insert nick Quick quote
+Quote Post
post Jun 10 2022, 08:52:45
Post #9

Мегаманьяк
***********
Group: Металариец
Posts: 1,941
Releases: 1
From: APATIN, SERBIA, АПАТИН, СЕРБИЯ
On Forums: 15 years 1 month
Thanks: 5713 time(s)



Flac

Register


Go to the top of the page
  Insert nick Quick quote
+Quote Post
post Jul 18 2022, 10:14:02
Post #10

NOUMENA
**************
Group: Металариец
Posts: 7,623
Releases: 12
On Forums: 13 years 2 weeks
Thanks: 3648 time(s)
Unknown


Красавцы мужики. Будто песни из загашника 20летней давности взяли. Каеф.
Go to the top of the page
  Insert nick Quick quote
+Quote Post

Reply to this topicStart new topic
1 User(s) are reading this topic (1 Guests and 0 Anonymous Users)
0 Members:

 



- Lo-Fi Version Support form
Copyrights and abuse reports form
Time is now: 29th November 2022 - 11:36:42