Welcome Guest ( Log In | Register )

> И неформату есть предел.

Рэп/хип-хоп/шансон/поп удаляются. Для них есть свои порталы.

> King Dude - Songs Of The 1940's - Part Two [ep] (2022), Americana/Folk Rock/Blues/Country (D8)
post Jun 26 2022, 11:15:13
Post #1

𝕻𝕬𝕹𝕬𝕮𝕰𝕬
**********
Group: Металариец
Posts: 1,067
Releases: 635
On Forums: 10 years 2 months
Thanks: 12607 time(s)
Unknown


(IMG:https://metalarea.org/images/audiocovers/2022_Jun/acov_tid366503_thumb.jpg)

*Artist: King Dude
*Album: Songs Of The 1940's - Part Two [ep]
*Year: 2022
*Genre: Americana/Folk Rock/Blues/Country
*Country: United States (IMG:https://metalarea.org/forum/style_images/flags/United%20States.png)
*Format: mp3@CBR320kbps
*Size: 25MB

Tracklist:
1. Don't Fence Me In 02:36
2. Sixteen Tons 02:34
3. Pistol Packin Mama 02:37
4. I Saw The Light 02:56
******************************
Total playing time: 10:43



Technical info
(IMG:https://metalarea.org/images/spectrogram/2022_Jun/0896c8d94c245d26ac5da537071f109a.png)
Input File: 01 - Don’t Fence Me In.mp3
Channels : 2
Sample Rate : 44100
Precision : 16-bit
Duration : 00:02:36.60 = 6906104 samples = 11745.1 CDDA sectors
File Size : 6.53M
Bit Rate : 334k
Sample Encoding: MPEG audio (layer I, II or III)
Comments :
Title=Don't Fence Me In
Artist=King Dude
Album=Songs Of The 1940's - Part Two
Tracknumber=1/4
Year=2022
Genre=Americana/Folk Rock/Blues/Country
Discnumber=1/1



Register


Go to the top of the page
  Insert nick Quick quote
+Quote Post
 
Start new topic
Replies (1 - 2)
post Jun 27 2022, 20:03:40
Post #2

Правь статус, ####!111
**************
Group: Металариец
Posts: 51,357
Releases: 943
On Forums: 13 years 2 months
Thanks: 48081 time(s)
Russian Federation


Последняя песня отсюда очень нравится в исполнении Кэша из одного из эпизодов Коломбо

Go to the top of the page
  Insert nick Quick quote
+Quote Post
post Jun 29 2022, 14:03:09
Post #3

Group: Подсевший
Posts: 18
Releases: 0
On Forums: 8 years 2 months
Thanks: 2 time(s)
South Africa


Anyone have part 1?
Go to the top of the page
  Insert nick Quick quote
+Quote Post

Reply to this topicStart new topic
1 User(s) are reading this topic (1 Guests and 0 Anonymous Users)
0 Members:

 



- Lo-Fi Version Support form
Copyrights and abuse reports form
Time is now: 15th August 2022 - 23:22:03