Welcome Guest ( Log In | Register )

> И неформату есть предел.

Рэп/хип-хоп/шансон/поп удаляются. Для них есть свои порталы.

> Randy Holden - Population Iii (2022), Hard Rock/Heavy Psych
post Jul 3 2022, 17:43:28
Post #1

Правь статус, ####!111
**************
Group: Металариец
Posts: 51,357
Releases: 943
On Forums: 13 years 2 months
Thanks: 48081 time(s)
Russian Federation


(IMG:https://metalarea.org/images/audiocovers/2022_Jul/acov_tid366783_thumb.jpg)

*Artist: Randy Holden
*Album: Population Iii
*Year: 2022
*Genre: Hard Rock/Heavy Psych
*Country: United States (IMG:https://metalarea.org/forum/style_images/flags/United%20States.png)
*Format: mp3@CBR320kbps
*Size: 151MB

Tracklist:
1. Living End 06:38
2. Sands of Time 07:02
3. Land of the Sun 21:43
4. Swamp Stomp 06:34
5. Money's Talkin´ 04:16
6. Outside Looking In 06:13
******************************
Total playing time: 52:26



Technical info
(IMG:https://metalarea.org/images/spectrogram/2022_Jul/002e0498ec5486d626f218cf325d37d8.png)
Input File: 02. Sands of Time.mp3
Channels : 2
Sample Rate : 44100
Precision : 16-bit
Duration : 00:07:01.72 = 18597896 samples = 31629.1 CDDA sectors
File Size : 22.4M
Bit Rate : 425k
Sample Encoding: MPEG audio (layer I, II or III)
Comments :
Title=Sands of Time
Artist=Randy Holden
Album=Population III
Tracknumber=2/6
Year=2022
Genre=Rock
Discnumber=1/1



Register


Thanks:
(2) Wail, Yarri,
Go to the top of the page
  Insert nick Quick quote
+Quote Post
 
Start new topic
Replies (1 - 4)
post Jul 4 2022, 17:08:40
Post #2

Правь статус, ####!111
**************
Group: Металариец
Posts: 51,357
Releases: 943
On Forums: 13 years 2 months
Thanks: 48081 time(s)
Russian Federation


Спустя 52 (!) года дядечка выпустил продолжение прошлого студийника. Ну что сказать? Очень понравились первые три композиции - как будто из того времени - психодэлишна, грязновата, чуфственна, восточные наигрыши тоже в тему впендюрены а не как у этих ваших металистов. Последние три песни, напротив, не фпечатлиили - какая то банальщина, да еще и тембр неудачен - слышно что старик поёт.

В сухом остатке - оставляем три песни и наслаждаемся прекрасной музыкой.
Go to the top of the page
  Insert nick Quick quote
+Quote Post
post Jul 4 2022, 17:48:33
Post #3

21st Century Schizoid Man
**************
Group: Металариец
Posts: 7,367
Releases: 93
From: Free Russia
On Forums: 14 years 3 months
Thanks: 6290 time(s)
Liberia


Ничего себе поворот. Я буквально недавно послушал его "Population II". Хорошо так зашло.
Go to the top of the page
  Insert nick Quick quote
+Quote Post
post Jul 4 2022, 19:02:18
Post #4

Правь статус, ####!111
**************
Group: Металариец
Posts: 51,357
Releases: 943
On Forums: 13 years 2 months
Thanks: 48081 time(s)
Russian Federation


ЦИТАТА(Yarri @ Jul 4 2022, 19:48:33) *
Хорошо так зашло.


Первая половина песен здесь точно не хуже того что было там (IMG:style_emoticons/default/9.gif)
Go to the top of the page
  Insert nick Quick quote
+Quote Post
post Jul 4 2022, 19:32:59
Post #5

21st Century Schizoid Man
**************
Group: Металариец
Posts: 7,367
Releases: 93
From: Free Russia
On Forums: 14 years 3 months
Thanks: 6290 time(s)
Liberia


Я без особых ожиданий, но попробую.
Go to the top of the page
  Insert nick Quick quote
+Quote Post

Reply to this topicStart new topic
1 User(s) are reading this topic (1 Guests and 0 Anonymous Users)
0 Members:

 



- Lo-Fi Version Support form
Copyrights and abuse reports form
Time is now: 15th August 2022 - 23:17:23