Welcome Guest ( Log In | Register )

> И неформату есть предел.

Рэп/хип-хоп/шансон/поп удаляются. Для них есть свои порталы.

 
Reply to this topicStart new topic
> Billy Howerdel - What Normal Was (2022), Alternative Rock/Gothic Rock/Darkwave
post Jul 5 2022, 09:43:15
Post #1

практики шума одухотворяющего
**************
Group: Металариец
Posts: 3,472
Releases: 120
From: хроник дисмембера
On Forums: 4 years 6 months
Thanks: 5438 time(s)
Russian Federation


(IMG:https://metalarea.org/images/audiocovers/2022_Jul/acov_tid366845_thumb.jpg)

*Artist: Billy Howerdel
*Album: What Normal Was
*Year: 2022
*Genre: Alternative Rock/Gothic Rock/Darkwave
*Country: United States (IMG:https://metalarea.org/forum/style_images/flags/United%20States.png)
*Format: mp3@CBR320kbps
*Size: 95MB

Tracklist:
1. Selfish Hearts 02:50
2. Free And Weightless 03:42
3. Ani 04:24
4. The Same Again 03:32
5. Beautiful Mistake 05:12
6. Poison Flowers 05:32
7. Follower 03:59
8. Bring Honor Back Home 03:45
9. EXP 03:56
10. Stars 05:09
******************************
Total playing time: 42:01

(IMG:https://metalarea.org/images/youtube.png)

Extended info
Guitarist and multi-instrumentalist in A Perfect Circle


Technical info
(IMG:https://metalarea.org/images/spectrogram/2022_Jul/45564c0068c48ce5a5452b6cc610579f.png)
Input File: 02. Free And Weightless.mp3
Channels : 2
Sample Rate : 44100
Precision : 16-bit
Duration : 00:03:42.27 = 9801887 samples = 16669.9 CDDA sectors
File Size : 9.14M
Bit Rate : 329k
Sample Encoding: MPEG audio (layer I, II or III)
Comments :
Title=Free And Weightless
Artist=Billy Howerdel
Album=What Normal Was
Tracknumber=02
Year=2022
Genre=Atmospheric | Synth Rock



Register


Thanks:
Go to the top of the page
  Insert nick Quick quote
+Quote Post

Reply to this topicStart new topic
1 User(s) are reading this topic (1 Guests and 0 Anonymous Users)
0 Members:

 



- Lo-Fi Version Support form
Copyrights and abuse reports form
Time is now: 15th August 2022 - 22:36:43