Welcome Guest ( Log In | Register )

> И неформату есть предел.

Рэп/хип-хоп/шансон/поп удаляются. Для них есть свои порталы.

> Zeit - The World Is Nothing (2015), Chaotic Hardcore (D9)
post Jul 6 2022, 17:05:09
Post #1

Правь статус, ####!111
**************
Group: Металариец
Posts: 2,130
Releases: 266
From: Omsk, Siberia
On Forums: 13 years 4 months
Thanks: 5309 time(s)
Russian Federation


(IMG:https://metalarea.org/images/audiocovers/2022_Jul/acov_tid366884_thumb.jpg)

*Artist: Zeit
*Album: The World Is Nothing
*Year: 2015
*Genre: Chaotic Hardcore
*Country: Italy (IMG:https://metalarea.org/forum/style_images/flags/Italy.png)
*Format: mp3@CBR320kbps
*Size: 57MB

Tracklist:
1. World And Distances 03:22
2. Weaving 01:41
3. Distance And Difference 02:49
4. Disguised 00:44
5. Chasing The Void 02:54
6. Tautologies 02:09
7. Lack Of Parts 01:31
8. No Conception 03:16
9. The Walls Of The World 03:30
10. Past Meanings 01:29
******************************
Total playing time: 23:30




(IMG:https://metalarea.org/images/youtube.png)

Extended info
Line-up:
Sebastiano Busato - vocals (Charlie Brown [Ita], Dødehender, Sein [Ita], ex-Anbruch)
Alessandro Maculan - guitar (ex-Euthanasia [Ita, VE]/As The Sun)
Gabriele Tesolin - bass (ex-Anbruch)
Francesco Begotti - drums (Charlie Brown [Ita], Dødehender, Jetzt [Ita], Sein [Ita], ex-Anbruch, ex-Euthanasia [Ita, VE]/As The Sun, ex-Seventh [Ita])

Guest vocal on track 6 by Fabio Favaretto.


Technical info
(IMG:https://metalarea.org/images/spectrogram/2022_Jul/ee3a6793fe36a71bf22f136ae25ce1f9.png)
Input File: 02 Weaving.mp3
Channels : 2
Sample Rate : 44100
Precision : 16-bit
Duration : 00:01:41.75 = 4487263 samples = 7631.4 CDDA sectors
File Size : 4.19M
Bit Rate : 330k
Sample Encoding: MPEG audio (layer I, II or III)
Comments :
Title=Weaving
Artist=Zeit
Album=The World Is Nothing
Tracknumber=2
Year=2015
Genre=Chaotic Hardcore



Register


Thanks:
Go to the top of the page
  Insert nick Quick quote
+Quote Post
 
Start new topic
Replies (1 - 1)
post Jul 8 2022, 07:43:13
Post #2

0%Tolerance
**************
Group: Металариец
Posts: 2,059
Releases: 0
On Forums: 9 years 10 months
Thanks: 425 time(s)
Unknown


Формат, особенно на фоне двух рокг говно-группок, что сейчас по ним отписался и которые находятся в форматном разделе, а не здесь.
Сам стафф - годнота на диссонансах.
Go to the top of the page
  Insert nick Quick quote
+Quote Post

Reply to this topicStart new topic
1 User(s) are reading this topic (1 Guests and 0 Anonymous Users)
0 Members:

 



- Lo-Fi Version Support form
Copyrights and abuse reports form
Time is now: 15th August 2022 - 22:55:44