Welcome Guest ( Log In | Register )

> Aethyss - The Void [ep] (2022), Progressive Metal
post Jul 14 2022, 15:07:08
Post #1

Serial Uploader
Group Icon
Group: V.I.P
Posts: 39,288
Releases: 37423
From: Lithuania
On Forums: 14 years 5 months
Thanks: 469128 time(s)
Lithuania


(IMG:https://metalarea.org/images/audiocovers/2022_Jul/acov_tid367182_thumb.jpg)

*Artist: Aethyss
*Album: The Void [ep]
*Year: 2022
*Genre: Progressive Metal
*Country: United States (IMG:https://metalarea.org/forum/style_images/flags/United%20States.png)
*Format: mp3@CBR320kbps
*Size: 69MB

Tracklist:
01. Solstitium 8:33
02. Reflections 8:48
03. The Cycle 12:39
******************************
Total playing time: 30:00


Preview 2
(IMG:https://metalarea.org/images/youtube.png)

Technical info
(IMG:https://metalarea.org/images/spectrogram/2022_Jul/01779cd7575c5380f82fd97b8ece7352.png)
Input File: 02 - Reflections.mp3
Channels : 2
Sample Rate : 44100
Precision : 16-bit
Duration : 00:08:48.10 = 23289078 samples = 39607.3 CDDA sectors
File Size : 21.3M
Bit Rate : 322k
Sample Encoding: MPEG audio (layer I, II or III)
Comments :
Title=Reflections
Artist=Aethyss
Album=The Void
Tracknumber=2
Year=2022
Discnumber=1/1



Register


Go to the top of the page
  Insert nick Quick quote
+Quote Post
 
Start new topic
Replies (1 - 1)
post Oct 2 2022, 22:33:31
Post #2

Пять Литров
*****
Group: Металариец
Posts: 404
Releases: 1
On Forums: 15 years 7 months
Thanks: 38 time(s)
Russian Federation


можно бы перезалить?
Go to the top of the page
  Insert nick Quick quote
+Quote Post

Reply to this topicStart new topic
1 User(s) are reading this topic (1 Guests and 0 Anonymous Users)
0 Members:

 



- Lo-Fi Version Support form
Copyrights and abuse reports form
Time is now: 27th November 2022 - 03:04:12