Welcome Guest ( Log In | Register )

> И неформату есть предел.

Рэп/хип-хоп/шансон/поп удаляются. Для них есть свои порталы.

 
Reply to this topicStart new topic
> Alien Vampires - Kinky To Hell [compilation] (2022), Ebm/Dark Electro (D11)
post Aug 7 2022, 07:04:15
Post #1

Правь статус, ####!111
**************
Group: Металариец
Posts: 3,492
Releases: 1979
On Forums: 11 years 10 months
Thanks: 38110 time(s)
Russian Federation


(IMG:https://metalarea.org/images/audiocovers/2022_Aug/acov_tid368049_thumb.jpg)

*Artist: Alien Vampires
*Album: Kinky To Hell [compilation]
*Year: 2022
*Genre: Ebm/Dark Electro
*Country: Italy (IMG:https://metalarea.org/forum/style_images/flags/Italy.png)
*Format: mp3@CBR320kbps
*Size: 90MB

Tracklist:
01.World in Denial 04:58
02.Destrudo 04:09
03.10 Bags 10 Lines 04:15
04.AV Forever E9 03:44
05.London Paranormal 03:05
06.Darkweb 05:00
07.Bring on the Apocalypse 04:09
08.Ready to Die 05:32
09.Fuck Borders 05:00
******************************
Total playing time: 39:52

(IMG:https://metalarea.org/images/youtube.png)

Extended info
Strictly limited to 300 units worldwide, this LP gathers 9 original songs which have never been released in a physical format, and also mixing in songs that appeared previously on the digital-only EP’s “Destrudo”, “World In Denial”, “Evil Twins” and “Fuck The Revolution Bring On The Apocalypse”.


Technical info
(IMG:https://metalarea.org/images/spectrogram/2022_Aug/1d4cac37f6ffa24165d3072cce0e95b6.png)
Input File: 05.London Paranormal.mp3
Channels : 2
Sample Rate : 44100
Precision : 16-bit
Duration : 00:03:05.22 = 8168246 samples = 13891.6 CDDA sectors
File Size : 7.41M
Bit Rate : 320k
Sample Encoding: MPEG audio (layer I, II or III)
Comments :
Title=London Paranormal
Artist=Alien Vampires
Album=Kinky To Hell
Tracknumber=05
Year=2022
Genre=EBM/Dark Electro



Register


Go to the top of the page
  Insert nick Quick quote
+Quote Post

Reply to this topicStart new topic
1 User(s) are reading this topic (1 Guests and 0 Anonymous Users)
0 Members:

 



- Lo-Fi Version Support form
Copyrights and abuse reports form
Time is now: 25th September 2022 - 08:38:43