Welcome Guest ( Log In | Register )

> Hetroertzen - Phosphorus, Vol. I (2022), Black Metal (D)
post Sep 15 2022, 14:27:52
Post #1

 
Group Icon
Group: V.I.P
Posts: 2,114
Releases: 182
On Forums: 16 years 4 months
Thanks: 19551 time(s)
Unknown


(IMG:https://metalarea.org/images/audiocovers/2022_Sep/acov_tid369490_thumb.jpg)

*Artist: Hetroertzen
*Album: Phosphorus, Vol. I
*Year: 2022
*Genre: Black Metal
*Country: Chile (IMG:https://metalarea.org/forum/style_images/flags/Chile.png)
*Format: mp3@CBR320kbps
*Size: 112MB

Tracklist:
1. The Arrival 01:55
2. Sea in Black 05:02
3. The Hall of Wonders 05:43
4. Absorption of the Current l 05:59
5. Absorption of the Current II 05:15
6. Vultus Satani 05:40
7. Et in Arcadia Ego 06:02
8. I Am Sickness, I Am Death 06:02
9. Pantokrator 06:47
******************************
Total playing time: 48:25

(IMG:https://metalarea.org/images/youtube.png)

Extended info
Listenable Records, September 16th.
Location: Chile (early), Sweden (now).


Technical info
(IMG:https://metalarea.org/images/spectrogram/2022_Sep/da624d28d338ff710f8036316637430b.png)
Input File: 02 - Sea in Black.mp3
Channels : 2
Sample Rate : 44100
Precision : 16-bit
Duration : 00:05:01.00 = 13274100 samples = 22575 CDDA sectors
File Size : 12.3M
Bit Rate : 326k
Sample Encoding: MPEG audio (layer I, II or III)
Comments :
Title=Sea in Black
Artist=Hetroertzen
Album=Phosphorus, Vol. 1
Tracknumber=2
Year=2022-09-16
Genre=Rock
Discnumber=1



Register


Register


Go to the top of the page
  Insert nick Quick quote
+Quote Post
 
Start new topic
Replies (1 - 9)
post Sep 15 2022, 18:48:57
Post #2

Два Литра
**
Group: Завсегдатай
Posts: 156
Releases: 5
On Forums: 1 year 6 months
Thanks: 243 time(s)
Unknown


Не разочаровывают чилийцы, альбом размерен, зловещ и величественно атмосферен. Сразу слышится, что талант никуда не делся.
Хороший альбом, даже несмотря на почти пятьдесят минут звучания.

Pantokrator, самая контрастная, просто в транс вгоняет своей неординарностью.


Thanks:
Go to the top of the page
  Insert nick Quick quote
+Quote Post
post Sep 15 2022, 21:00:30
Post #3

пустое и необозримое
**************
Group: Металариец
Posts: 6,078
Releases: 0
On Forums: 7 years 1 week
Thanks: 3819 time(s)
Antarctica


оккультное ни о чём.


Thanks:
Go to the top of the page
  Insert nick Quick quote
+Quote Post
post Sep 22 2022, 18:30:02
Post #4

Правь статус, ####!111
**************
Group: Металариец
Posts: 5,960
Releases: 5462
From: Одесса
On Forums: 14 years 8 months
Thanks: 63896 time(s)
Ukraine


lossless plz...
Go to the top of the page
  Insert nick Quick quote
+Quote Post
post Sep 22 2022, 18:39:45
Post #5

Cthulhu Cultist
**********
Group: Металариец
Posts: 1,380
Releases: 5
From: Киев
On Forums: 15 years 3 months
Thanks: 567 time(s)
Ukraine


ЦИТАТА(ent404 @ Sep 15 2022, 23:00:30) *
оккультное ни о чём.

Чо, про фосфор же ж. Химия. Следующий будет про азот или кислород. Новое направление.
Go to the top of the page
  Insert nick Quick quote
+Quote Post
post Sep 30 2022, 08:42:32
Post #6

 
Group Icon
Group: V.I.P
Posts: 2,114
Releases: 182
On Forums: 16 years 4 months
Thanks: 19551 time(s)
Unknown


Добавил FLAC.


Go to the top of the page
  Insert nick Quick quote
+Quote Post
post Oct 12 2022, 20:41:47
Post #7

______________
**********
Group: Металариец
Posts: 1,067
Releases: 0
On Forums: 3 years 3 months
Thanks: 320 time(s)
Unknown


Из всего понравился лишь один рифф, который звучит в 8-й композиции с 2:58.
Go to the top of the page
  Insert nick Quick quote
+Quote Post
post Oct 12 2022, 21:41:28
Post #8

NOUMENA
**************
Group: Металариец
Posts: 7,752
Releases: 13
On Forums: 13 years 2 months
Thanks: 3742 time(s)
Unknown


Сразу не торкает. Раза с третьего проникся. Отличный медитэйшн.
Go to the top of the page
  Insert nick Quick quote
+Quote Post
post Oct 21 2022, 08:24:44
Post #9

кручу наждак
**************
Group: Металариец
Posts: 5,887
Releases: 107
From: Самара
On Forums: 12 years 8 months
Thanks: 4625 time(s)
Russian Federation


А ведь хорошо же. И торкает вполне с первого раза. Правда, к концу вроде как выдыхается.


Thanks:
(1) Occultas,
Go to the top of the page
  Insert nick Quick quote
+Quote Post
post Dec 12 2022, 11:32:17
Post #10

Правь статус, ####!111
**************
Group: Металариец
Posts: 5,531
Releases: 612
From: MoscoW
On Forums: 16 years 2 months
Thanks: 9614 time(s)
Russian Federation


LISTENABLE Records:


Thanks:
Go to the top of the page
  Insert nick Quick quote
+Quote Post

Reply to this topicStart new topic
2 User(s) are reading this topic (2 Guests and 0 Anonymous Users)
0 Members:

 



- Lo-Fi Version Support form
Copyrights and abuse reports form
Time is now: 8th February 2023 - 18:25:16