Welcome Guest ( Log In | Register )

> И неформату есть предел.

Рэп/хип-хоп/шансон/поп удаляются. Для них есть свои порталы.

 
Reply to this topicStart new topic
> Vatican Shadow - Coast Guard Gulf Of Blood (2022), Techno/Industrial (D7)
post Sep 21 2022, 20:56:38
Post #1

Маньяк
**********
Group: Металариец
Posts: 1,193
Releases: 57
From: Санкт-Петербург
On Forums: 16 years 4 months
Thanks: 3283 time(s)
Russian Federation


(IMG:http://metalarea.org/images/audiocovers/2022_Sep/acov_tid369718_thumb.jpg)

*Artist: Vatican Shadow
*Album: Coast Guard Gulf Of Blood
*Year: 2022
*Genre: Techno/Industrial
*Country: United States (IMG:http://metalarea.org/forum/style_images/flags/United%20States.png)
*Format: mp3@CBR320kbps
*Size: 85MB

Tracklist:
01. Suicidal Irredentism 02:58
02. The System Is Not Corrupt - Corruption Is The System 03:53
03. Martyrdom Speedboats Along The Cliffs Of Gibraltar 05:39
04. Abuwahib 04:28
05. Camp X-Ray Time Bomb 05:56
06. Pursuit Boats (Coast Guard Detachments In The War On Terror) 06:55
07. Critical Piece Of Sept. 11 History To Be Sold To Indonesia 03:15
08. Rusted Oil Drums 02:51
******************************
Total playing time: 35:57



Technical info
(IMG:http://metalarea.org/images/spectrogram/2022_Sep/67081c5ac3fda82b391a791baac59217.png)
Input File: 02 - The System Is Not Corrupt - Corruption Is The System.mp3
Channels : 2
Sample Rate : 44100
Precision : 16-bit
Duration : 00:03:53.03 = 10276535 samples = 17477.1 CDDA sectors
File Size : 9.83M
Bit Rate : 338k
Sample Encoding: MPEG audio (layer I, II or III)
Comments :
Title=The System Is Not Corrupt - Corruption Is The System
Artist=Vatican Shadow
Album=Coast Guard Gulf Of Blood
Tracknumber=02
Year=2022
Genre=Techno/Industrial



Register


Thanks:
(3) gwar, Infidel, xska,
Go to the top of the page
  Insert nick Quick quote
+Quote Post

Reply to this topicStart new topic
1 User(s) are reading this topic (1 Guests and 0 Anonymous Users)
0 Members:

 



- Lo-Fi Version Support form
Copyrights and abuse reports form
Time is now: 25th September 2022 - 10:14:48