Welcome Guest ( Log In | Register )

> Releases Upload / Добавление релизов

Добавить релиз тут / Click here to add release
Рекомендованные обменники / Recommended file shares

> Drabik - Mannequin (2022), Heavy Metal
post Sep 22 2022, 12:50:09
Post #1

Serial Uploader
Group Icon
Group: V.I.P
Posts: 38,977
Releases: 37108
From: Lithuania
On Forums: 14 years 3 months
Thanks: 463784 time(s)
Lithuania


(IMG:https://metalarea.org/images/audiocovers/2022_Sep/acov_tid369754_thumb.jpg)

*Artist: Drabik
*Album: Mannequin
*Year: 2022
*Genre: Heavy Metal
*Country: Italy (IMG:https://metalarea.org/forum/style_images/flags/Italy.png)
*Format: mp3@CBR320kbps
*Size: 94MB

Tracklist:
1. Black Hole 04:06
2. Chain of Sorrow 03:21
3. Mannequin 03:49
4. Lead You On 03:30
5. Lap of God 04:08
6. Floating 03:25
7. Pray 04:24
8. Parasite 03:25
9. Rough Hands 03:31
10. Sinner's Pledge 04:08
******************************
Total playing time: 37:47


Preview 2
(IMG:https://metalarea.org/images/youtube.png)

Technical info
(IMG:https://metalarea.org/images/spectrogram/2022_Sep/de148a07ac5b034bfff7ece3ffe94e44.png)
Input File: 02 - Chain Of Sorrow.mp3
Channels : 2
Sample Rate : 44100
Precision : 16-bit
Duration : 00:03:21.00 = 8864100 samples = 15075 CDDA sectors
File Size : 8.85M
Bit Rate : 352k
Sample Encoding: MPEG audio (layer I, II or III)
Comments :
Title=Chain Of Sorrow
Artist=Drabik
Album=Mannequin
Tracknumber=2/10
Year=2022
Discnumber=1/1



Register


Go to the top of the page
  Insert nick Quick quote
+Quote Post
 
Start new topic
Replies (1 - 1)
post Sep 22 2022, 22:15:38
Post #2

Тридцать три года на борту "тяжёлого" крейсера
**************
Group: Металариец
Posts: 2,934
Releases: 0
From: Питер
On Forums: 15 years 3 months
Thanks: 927 time(s)
Russian Federation


Сегодня вечер УГ, видимо: десятки релизов -- ни одного стоящего
Go to the top of the page
  Insert nick Quick quote
+Quote Post

Reply to this topicStart new topic
2 User(s) are reading this topic (2 Guests and 0 Anonymous Users)
0 Members:

 



- Lo-Fi Version Support form
Copyrights and abuse reports form
Time is now: 6th October 2022 - 05:10:00