Welcome Guest ( Log In | Register )

> Releases Upload / Добавление релизов

Добавить релиз тут / Click here to add release
Рекомендованные обменники / Recommended file shares

 
Reply to this topicStart new topic
> Metal Order - Adventures & Nightmares (2022), Heavy Metal
post Sep 22 2022, 14:40:30
Post #1

Serial Uploader
Group Icon
Group: V.I.P
Posts: 38,932
Releases: 37068
From: Lithuania
On Forums: 14 years 3 months
Thanks: 463030 time(s)
Lithuania


(IMG:https://metalarea.org/images/audiocovers/2022_Sep/acov_tid369765_thumb.jpg)

*Artist: Metal Order
*Album: Adventures & Nightmares
*Year: 2022
*Genre: Heavy Metal
*Country: Sweden (IMG:https://metalarea.org/forum/style_images/flags/Sweden.png)
*Format: mp3@CBR320kbps
*Size: 80MB

Tracklist:
01. Courage Of A Soldier 03:49
02. Steelbrothers 03:59
03. The Tempters City 03:44
04. Cthulhu-Rising From The Sea 04:04
05. Ninja 05:03
06. Now Or Never 03:53
07. Thunder And Fury 03:53
08. Today, We March 03:51
09. Fields Of Betrayal 01:53
******************************
Total playing time: 34:09

Technical info
(IMG:https://metalarea.org/images/spectrogram/2022_Sep/4dd6f828d9ba8c10d78a20113d3e16d7.png)
Input File: 02 - Steelbrothers.mp3
Channels : 2
Sample Rate : 44100
Precision : 16-bit
Duration : 00:03:59.00 = 10539900 samples = 17925 CDDA sectors
File Size : 9.82M
Bit Rate : 329k
Sample Encoding: MPEG audio (layer I, II or III)
Comments :
Title=Steelbrothers
Artist=Metal Order
Album=Adventures&Nightmares
Tracknumber=2/9
Year=2022
Discnumber=1/1



Register


Go to the top of the page
  Insert nick Quick quote
+Quote Post

Reply to this topicStart new topic
5 User(s) are reading this topic (5 Guests and 0 Anonymous Users)
0 Members:

 



- Lo-Fi Version Support form
Copyrights and abuse reports form
Time is now: 25th September 2022 - 21:07:39