Welcome Guest ( Log In | Register )

> Releases Upload / Добавление релизов

Добавить релиз тут / Click here to add release
Рекомендованные обменники / Recommended file shares

> Last Retch - Sadism And Severed Heads (2022), Death Metal
post Sep 22 2022, 14:48:53
Post #1

Правь статус, ####!111
**************
Group: Металариец
Posts: 30,319
Releases: 22320
From: Г.Харьков
On Forums: 10 years 4 months
Thanks: 465908 time(s)
Unknown


(IMG:https://metalarea.org/images/audiocovers/2022_Sep/acov_tid369767_thumb.jpg)

*Artist: Last Retch
*Album: Sadism And Severed Heads
*Year: 2022
*Genre: Death Metal
*Country: Canada (IMG:https://metalarea.org/forum/style_images/flags/Canada.png)
*Format: mp3@CBR320kbps
*Size: 63MB

Tracklist:
1. Neurosis
2. Doomrider
3. Sadism and Severed Heads
4. Cannibals of Tuma
5. Dead as Fuck
6. Wallowing in Feculence
7. Fleshed Out
8. Ordained in a Dismal Cesspool
9. Your Last Retch
******************************
Total playing time: 27:07



Extended info
Davis Maxwell Drums
Derek Brzozowski Guitars
John Russell Guitars, Bass
Finlay Blakelock Vocals


Technical info
(IMG:https://metalarea.org/images/spectrogram/2022_Sep/0d858d28f2712f7a9cbb55ee0097a231.png)
Input File: 05 - Dead as Fuck.mp3
Channels : 2
Sample Rate : 44100
Precision : 16-bit
Duration : 00:03:16.00 = 8643600 samples = 14700 CDDA sectors
File Size : 7.97M
Bit Rate : 325k
Sample Encoding: MPEG audio (layer I, II or III)
Comments :
Title=Dead as Fuck
Artist=Last Retch
Album=Sadism and Severed Heads
Tracknumber=5
Year=2022
Discnumber=1



Register


Go to the top of the page
  Insert nick Quick quote
+Quote Post
 
Start new topic
Replies (1 - 1)
post Today, 05:02:54
Post #2

кручу наждак
**************
Group: Металариец
Posts: 5,683
Releases: 107
From: Самара
On Forums: 12 years 4 months
Thanks: 4498 time(s)
Russian Federation


Забористая штука.
Обложка стилем похожа на начинающего Паоло Джирарди.
Go to the top of the page
  Insert nick Quick quote
+Quote Post

Reply to this topicStart new topic
1 User(s) are reading this topic (1 Guests and 0 Anonymous Users)
0 Members:

 



- Lo-Fi Version Support form
Copyrights and abuse reports form
Time is now: 25th September 2022 - 21:20:58