Welcome Guest ( Log In | Register )

> Releases Upload / Добавление релизов

Добавить релиз тут / Click here to add release
Рекомендованные обменники / Recommended file shares

 
Reply to this topicStart new topic
> Hammer Of Dawn - Uzil [ep] (2022), Symphonic/Blackened Death Metal
post Sep 22 2022, 15:24:45
Post #1

Serial Uploader
Group Icon
Group: V.I.P
Posts: 38,977
Releases: 37108
From: Lithuania
On Forums: 14 years 3 months
Thanks: 463784 time(s)
Lithuania


(IMG:https://metalarea.org/images/audiocovers/2022_Sep/acov_tid369771_thumb.jpg)

*Artist: Hammer Of Dawn
*Album: Uzil [ep]
*Year: 2022
*Genre: Symphonic/Blackened Death Metal
*Country: United States (IMG:https://metalarea.org/forum/style_images/flags/United%20States.png)
*Format: mp3@CBR320kbps
*Size: 52MB

Tracklist:
1. Declaration of the Dark Horse 03:52
2. Vantablack (feat. Filip Danielsson) 03:42
3. Kryllstorm 04:30
4. Berserker! (feat. Oliver Rae Aleron and Dallas Toler-Wade) 04:20
5. 11th Gale (14 A.E.) 04:45
******************************
Total playing time: 21:09


Preview 2


(IMG:https://metalarea.org/images/youtube.png)

Technical info
(IMG:https://metalarea.org/images/spectrogram/2022_Sep/ff8e2b99adb679d3740da347048f2d0f.png)
Input File: 02. Vantablack.mp3
Channels : 2
Sample Rate : 44100
Precision : 16-bit
Duration : 00:03:42.00 = 9790200 samples = 16650 CDDA sectors
File Size : 9.03M
Bit Rate : 325k
Sample Encoding: MPEG audio (layer I, II or III)
Comments :
Title=Vantablack
Artist=Hammer of Dawn / Filip Danielsson
Album=Uzil
Tracknumber=2
Year=2022
Genre=Symphonic Mellodic Death/Black
Discnumber=1



Register


Go to the top of the page
  Insert nick Quick quote
+Quote Post

Reply to this topicStart new topic
1 User(s) are reading this topic (1 Guests and 0 Anonymous Users)
0 Members:

 



- Lo-Fi Version Support form
Copyrights and abuse reports form
Time is now: 6th October 2022 - 04:28:00