Welcome Guest ( Log In | Register )

> Releases Upload / Добавление релизов

Добавить релиз тут / Click here to add release
Рекомендованные обменники / Recommended file shares

> Alvenrad - Veluws Ijzer (2022), Folk/Black/Heavy Metal
post Sep 22 2022, 16:02:53
Post #1

Serial Uploader
Group Icon
Group: V.I.P
Posts: 38,977
Releases: 37113
From: Lithuania
On Forums: 14 years 3 months
Thanks: 463786 time(s)
Lithuania


(IMG:https://metalarea.org/images/audiocovers/2022_Sep/acov_tid369776_thumb.jpg)

*Artist: Alvenrad
*Album: Veluws Ijzer
*Year: 2022
*Genre: Folk/Black/Heavy Metal
*Country: Netherlands (IMG:https://metalarea.org/forum/style_images/flags/Netherlands.png)
*Format: mp3@CBR320kbps
*Size: 97MB

Tracklist:
1. De Stuwwal 05:19
2. De Vliegden 05:50
3. Roodwild 05:06
4. De Marke 05:04
5. Veluws Ijzer 08:06
6. Sagenrijk 05:08
7. De Gevallen Veluwenaar 06:57
******************************
Total playing time: 41:30





(IMG:https://metalarea.org/images/youtube.png)

Technical info
(IMG:https://metalarea.org/images/spectrogram/2022_Sep/c886a90cacaa38729bb1223a300d69bf.png)
Input File: 02 - De Vliegden.mp3
Channels : 2
Sample Rate : 44100
Precision : 16-bit
Duration : 00:05:50.90 = 15474646 samples = 26317.4 CDDA sectors
File Size : 14.4M
Bit Rate : 329k
Sample Encoding: MPEG audio (layer I, II or III)
Comments :
Title=De Vliegden
Artist=Alvenrad
Album=Veluws IJzer
Tracknumber=2/7
Year=2022
Discnumber=1/1



Register


Go to the top of the page
  Insert nick Quick quote
+Quote Post
 
Start new topic
Replies (1 - 1)
post Sep 23 2022, 06:10:31
Post #2

Четыре Литра
****
Group: Металариец
Posts: 388
Releases: 0
On Forums: 4 years 3 months
Thanks: 182 time(s)
Mexico


I love Dutch black/folk metal. Amazing band! (IMG:style_emoticons/default/9.gif)
Go to the top of the page
  Insert nick Quick quote
+Quote Post

Reply to this topicStart new topic
1 User(s) are reading this topic (1 Guests and 0 Anonymous Users)
0 Members:

 



- Lo-Fi Version Support form
Copyrights and abuse reports form
Time is now: 6th October 2022 - 06:08:42