Welcome Guest ( Log In | Register )

> Releases Upload / Добавление релизов

Добавить релиз тут / Click here to add release
Рекомендованные обменники / Recommended file shares

 
Reply to this topicStart new topic
> Condemned AD - Follow A Failing Leader (2022), Thrash Metal
post Sep 22 2022, 17:28:51
Post #1

Правь статус, ####!111
**************
Group: Металариец
Posts: 30,384
Releases: 22370
From: Г.Харьков
On Forums: 10 years 4 months
Thanks: 467378 time(s)
Unknown


(IMG:http://metalarea.org/images/audiocovers/2022_Sep/acov_tid369783_thumb.jpg)

*Artist: Condemned AD
*Album: Follow A Failing Leader
*Year: 2022
*Genre: Thrash Metal
*Country: Sweden (IMG:http://metalarea.org/forum/style_images/flags/Sweden.png)
*Format: mp3@CBR320kbps
*Size: 135MB

Tracklist:
1. You Will Fear My Hate
2. Dead Don't Lie
3. Follow a Failing Leader
4. Killing Floor
5. Save Me from Myself
6. Thru the Sinner Eyes
7. Crawl in the Dirt
8. Suicide by Murder
9. Stay Away from Me
10. Loneliness in Lunacy
11. No Gods No Masters
12. Nothing Is Nothing
******************************
Total playing time: 58:09




Extended info
Mikael Karlsson Vocals, Guitars, Bass
Juan Rodrigo Drums
Alexander "Alex" Eriksson (R.I.P. 2022) Guitars


Technical info
(IMG:http://metalarea.org/images/spectrogram/2022_Sep/17c339c6d9a7b055f3560ee116b30f27.png)
Input File: 09 - Stay Away from Me.mp3
Channels : 2
Sample Rate : 44100
Precision : 16-bit
Duration : 00:06:04.00 = 16052400 samples = 27300 CDDA sectors
File Size : 14.7M
Bit Rate : 324k
Sample Encoding: MPEG audio (layer I, II or III)
Comments :
Title=Stay Away from Me
Artist=Condemned-AD
Album=Follow a Failing Leader
Tracknumber=9
Year=2022-09-23
Genre=Metal
Discnumber=1



Register


Go to the top of the page
  Insert nick Quick quote
+Quote Post

Reply to this topicStart new topic
1 User(s) are reading this topic (1 Guests and 0 Anonymous Users)
0 Members:

 



- Lo-Fi Version Support form
Copyrights and abuse reports form
Time is now: 6th October 2022 - 05:04:55