Welcome Guest ( Log In | Register )

> И неформату есть предел.

Рэп/хип-хоп/шансон/поп удаляются. Для них есть свои порталы.

> JK Flesh - Veneer Of Tolerance [ep] (2022), Techno/Industrial
post Sep 27 2022, 20:35:08
Post #1

Маньяк
**********
Group: Металариец
Posts: 1,360
Releases: 65
From: Санкт-Петербург
On Forums: 16 years 6 months
Thanks: 3593 time(s)
Russian Federation


(IMG:http://metalarea.org/images/audiocovers/2022_Sep/acov_tid369955_thumb.jpg)

*Artist: JK Flesh
*Album: Veneer Of Tolerance [ep]
*Year: 2022
*Genre: Techno/Industrial
*Country: United Kingdom (IMG:http://metalarea.org/forum/style_images/flags/United%20Kingdom.png)
*Format: mp3@CBR320kbps
*Size: 73MB

Tracklist:
01. The Stranger 03:34
02. Urge 05:17
03. Human/Nature 05:57
04. Empty Words 05:58
05. Will All Be Done 05:27
06. Veneer Of Tolerance 04:54
******************************
Total playing time: 31:06



Technical info
(IMG:http://metalarea.org/images/spectrogram/2022_Sep/787af5e0b924cfe49c6915fbadf851c3.png)
Input File: 02 - Urge.mp3
Channels : 2
Sample Rate : 44100
Precision : 16-bit
Duration : 00:05:17.17 = 13987329 samples = 23788 CDDA sectors
File Size : 12.7M
Bit Rate : 320k
Sample Encoding: MPEG audio (layer I, II or III)
Comments :
Title=Urge
Artist=JK Flesh
Album=Veneer Of Tolerance (EP)
Tracknumber=02
Year=2022
Genre=Techno/Industrial



Register


Go to the top of the page
  Insert nick Quick quote
+Quote Post
 
Start new topic
Replies (1 - 1)
post Oct 17 2022, 16:46:34
Post #2
BAN
RO till
Dec 7 2022, 19:26:25



Без особого полёта фантазии.
Go to the top of the page
  Insert nick Quick quote
+Quote Post

Reply to this topicStart new topic
1 User(s) are reading this topic (1 Guests and 0 Anonymous Users)
0 Members:

 



- Lo-Fi Version Support form
Copyrights and abuse reports form
Time is now: 6th December 2022 - 21:47:39