Welcome Guest ( Log In | Register )

> Acephalix - Theothanatology (2022), Old School Death Metal
post Sep 28 2022, 11:40:31
Post #1

Правь статус, ####!111
**************
Group: Металариец
Posts: 31,449
Releases: 23190
From: Г.Харьков
On Forums: 10 years 9 months
Thanks: 488240 time(s)
Ukraine


(IMG:https://metalarea.org/images/audiocovers/2022_Sep/acov_tid369975_thumb.jpg)

*Artist: Acephalix
*Album: Theothanatology
*Year: 2022
*Genre: Old School Death Metal
*Country: United States (IMG:https://metalarea.org/forum/style_images/flags/United%20States.png)
*Format: mp3@CBR320kbps
*Size: 71MB

Tracklist:
01. Theothanatologist
02. Godheads
03. Abyssal
04. Portmortem Punishment
05. Innards Of Divinity
06. Pristine Scum
07. Defecated Spirit
08. Atheonomist
******************************
Total playing time: 31:21

Preview 1


Extended info
Daniel Butler Vocals (2007-present)
See also: Draghkar, Vastum, ex-Perish
David Benson Drums (2008-present)
See also: Depressor, ex-Lawless, ex-Extinction, Said Sara, ex-Transition.
Adam Camara Guitars (2017-present)
See also: Ensepulcher, Mortuous (live), ex-Atomic Violence, ex-Fiend, Battleshök, ex-Veil of Nithael, ex-Desecrator, ex-Mortal Torture
Erika Osterhout Bass (2021-present)
See also: Abysmal Dimensions, Chthonic Deity, Scolex, ex-The Burial Tide, ex-Necrosic, ex-Trepanation, 2084, Painted Doll (live), ex-Lycus, ex-Blackwater Holylight (live), ex-Extraction (live), ex-Extremity, ex-Femacoffin (live)
Adam Walker Guitars (2022-present)
See also: Iron Noose, Kata Sarka, ex-Thy Darkest Empire, Boddicker, ex-Ptahil (live), ex-The Lurking Corpses (live), ex-Nuclear Hellfrost (live), ex-Fog, ex-Graves of the Endless Fall, ex-The Electric Hellfire Club, ex-Convictions, ex-Endorphins Lost, ex-Wasteland D.C., ex-World Eater




Technical info
(IMG:https://metalarea.org/images/spectrogram/2022_Sep/b4756833ea5d8851cb8cf9fc61799155.png)
Input File: 01 - Theothanatologist.mp3
Channels : 2
Sample Rate : 44100
Precision : 16-bit
Duration : 00:03:41.71 = 9777411 samples = 16628.2 CDDA sectors
File Size : 8.87M
Bit Rate : 320k
Sample Encoding: MPEG audio (layer I, II or III)
Comments :
Title=Theothanatologist
Artist=Acephalix
Album=Theothanatology
Tracknumber=1
Year=2022
Genre=Metal



Register


Go to the top of the page
  Insert nick Quick quote
+Quote Post
 
Start new topic
Replies (1 - 4)
post Oct 1 2022, 11:14:30
Post #2

Правь статус, ####!111
**************
Group: Металариец
Posts: 2,139
Releases: 1
From: APATIN, SERBIA, АПАТИН, СЕРБИЯ
On Forums: 15 years 3 months
Thanks: 6381 time(s)



Flac

Register


Go to the top of the page
  Insert nick Quick quote
+Quote Post
post Oct 2 2022, 05:09:50
Post #3

кручу наждак
**************
Group: Металариец
Posts: 5,887
Releases: 107
From: Самара
On Forums: 12 years 8 months
Thanks: 4625 time(s)
Russian Federation


Прямолинейный и убойный дэт-метал по классическим лекалам старой школы. Любителям дууумед или прог-шмог-элементов можно смело проходить мимо.


Thanks:
(1) Occultas,
Go to the top of the page
  Insert nick Quick quote
+Quote Post
post Oct 5 2022, 08:05:05
Post #4

Мегаманьяк
***********
Group: Металариец
Posts: 1,940
Releases: 0
From: Санкт-Петербург
On Forums: 13 years 5 months
Thanks: 875 time(s)
Russian Federation


Хороший альбом
Добротная "солянка" из разных школ старого дэта
Слушается "на ура"


Thanks:
(1) Occultas,
Go to the top of the page
  Insert nick Quick quote
+Quote Post
post Today, 11:18:17
Post #5

Full-of-Hate
**************
Group: Металариец
Posts: 5,209
Releases: 0
From: Moscow
On Forums: 13 years 7 months
Thanks: 6078 time(s)
Russian Federation


Оченно недурственный новодельный олдскул.
Достаточно неплохо скроен, местами нетороплив и обаятельно прямолинеен. Вроде ничего нового, но старое переиграно со вкусом и правильным чутьем.
20 Buck Spin во всей своей красе. И да, по духу очень близко к Vastum (вокалист вроде как трудится у двух микрофонных стоек).


Thanks:
(1) Occultas,
Go to the top of the page
  Insert nick Quick quote
+Quote Post

Reply to this topicStart new topic
2 User(s) are reading this topic (2 Guests and 0 Anonymous Users)
0 Members:

 



- Lo-Fi Version Support form
Copyrights and abuse reports form
Time is now: 8th February 2023 - 17:57:33