Welcome Guest ( Log In | Register )

> И неформату есть предел.

Рэп/хип-хоп/шансон/поп удаляются. Для них есть свои порталы.

 
Reply to this topicStart new topic
> Rishloo - Eidolon (2007), Alternative Rock/Metal
post Sep 29 2022, 08:57:43
Post #1

21st Century Schizoid Man
**************
Group: Металариец
Posts: 7,767
Releases: 260
From: 1984
On Forums: 14 years 7 months
Thanks: 7897 time(s)
Liberia


(IMG:https://metalarea.org/images/audiocovers/2022_Sep/acov_tid370000_thumb.jpg)

*Artist: Rishloo
*Album: Eidolon
*Year: 2007
*Genre: Alternative Rock/Metal
*Country: United States (IMG:https://metalarea.org/forum/style_images/flags/United%20States.png)
*Format: mp3@CBR320kbps
*Size: 123MB

Tracklist:
01. Prosag 0:29
02. Freaks & Animals 4:11
03. Elempe 3:37
04. Pandora 4:59
05. My Favorite Things 1:47
06. Alchemy Alice 4:42
07. To Tame the Temporal Shrew 4:18
08. Weeble Wabble 1:10
09. Eidolon Alpha 5:12
10. Omega 3:23
11. In Pill Form 2:14
12. Zdlzislaw 5:45
13. Disco Biscuit 6:14
14. Shades 6:51
******************************
Total playing time: 54:52

(IMG:https://metalarea.org/images/youtube.png)
(IMG:https://metalarea.org/images/youtube.png)
(IMG:https://metalarea.org/images/youtube.png)
(IMG:https://metalarea.org/images/youtube.png)
(IMG:https://metalarea.org/images/youtube.png)

Extended info
Drew - vocals
Dave - guitars
Sean - bass
Jesse - drums


Technical info
(IMG:https://metalarea.org/images/spectrogram/2022_Sep/53949d1c8592b966aac7ff02761d084d.png)
Input File: 01. Prosag.mp3
Channels : 2
Sample Rate : 44100
Precision : 16-bit
Duration : 00:00:29.11 = 1283531 samples = 2182.88 CDDA sectors
File Size : 1.16M
Bit Rate : 320k
Sample Encoding: MPEG audio (layer I, II or III)
Comments :
Title=Prosag
Artist=Rishloo
Album=Eidolon
Tracknumber=1
Year=2007
Genre=Progressive Rock



Register
Go to the top of the page
  Insert nick Quick quote
+Quote Post

Reply to this topicStart new topic
1 User(s) are reading this topic (1 Guests and 0 Anonymous Users)
0 Members:

 



- Lo-Fi Version Support form
Copyrights and abuse reports form
Time is now: 6th December 2022 - 22:54:27