Welcome Guest ( Log In | Register )

> И неформату есть предел.

Рэп/хип-хоп/шансон/поп удаляются. Для них есть свои порталы.

 
Reply to this topicStart new topic
> Mamaleek - Diner Coffee (2022), Experimental Rock/Metal (D8)
post Sep 30 2022, 18:11:20
Post #1

Правь статус, ####!111
**************
Group: Металариец
Posts: 5,724
Releases: 5240
From: Одесса
On Forums: 14 years 6 months
Thanks: 61412 time(s)
Ukraine


(IMG:http://metalarea.org/images/audiocovers/2022_Sep/acov_tid370124_thumb.jpg)

*Artist: Mamaleek
*Album: Diner Coffee
*Year: 2022
*Genre: Experimental Rock/Metal
*Country: United States (IMG:http://metalarea.org/forum/style_images/flags/United%20States.png)
*Format: mp3@CBR320kbps
*Size: 87MB

Tracklist:
1. Libations to Sacred Clowns 00:51
2. Boiler Room 06:36
3. Badtimers 07:18
4. Save Your Poor Wicked Soul 01:16
5. Grief and a Headhunter's Rage 08:15
6. Wharf Rats in the Moonlight 05:55
7. Diner Coffee 06:07
******************************
Total playing time: 36:18



Extended info
Of all things, it’s laughter that pervades Mamaleek’s Diner Coffee, the San Francisco metal deconstructionists’ sonically crushing ode to the humor found within catastrophe, American diners, and “the little things.” Featuring a mix of live performances, samples, and field recordings, Diner Coffee laughs through its harsh songs in an attempt to reflect the camaraderie found at the heart of global calamities and changing personal situations. It’s an homage to the quotidian set to the backdrop of the mythologized, sanctuary-like properties of a diner, reveling in irony-less nostalgia.

Mamaleek embodies this ethos on and off the record. Originally two anonymous brothers, the past few years have seen Mamaleek adding members and venturing into live performance. Diner Coffee, following in the footsteps of 2020’s Come & See, features new, unfamiliar, unknown voices - including expanded experiments with horns, woodwinds, and strings and a Bay Area-local blues harmonica player who improvised recorded selections during practices. The resulting tracks touch on signifiers from black metal, blues, ambient, and more.

Diner Coffee simultaneously represents the band’s artistic progression and the state of the world. Taking a surprisingly optimistic perspective, Mamaleek once again puts forward a project of left-field, wholly unique compositions, eluding easy categorization and furthering their abstraction of genre.


Technical info
(IMG:http://metalarea.org/images/spectrogram/2022_Sep/0185facc23de897e0573889c63351959.png)
Input File: 02 - Boiler Room.mp3
Channels : 2
Sample Rate : 44100
Precision : 16-bit
Duration : 00:06:36.00 = 17463600 samples = 29700 CDDA sectors
File Size : 16.0M
Bit Rate : 322k
Sample Encoding: MPEG audio (layer I, II or III)
Comments :
Title=Boiler Room
Artist=Mamaleek
Album=Diner Coffee
Tracknumber=2
Year=2022-09-30
Genre=Experimental Rock



Register


Go to the top of the page
  Insert nick Quick quote
+Quote Post

Reply to this topicStart new topic
1 User(s) are reading this topic (1 Guests and 0 Anonymous Users)
0 Members:

 



- Lo-Fi Version Support form
Copyrights and abuse reports form
Time is now: 2nd December 2022 - 11:31:45