Welcome Guest ( Log In | Register )

> И неформату есть предел.

Рэп/хип-хоп/шансон/поп удаляются. Для них есть свои порталы.

> Flint Glass - Azathoth (2022), Electronic/Dark Ambient
post Sep 30 2022, 21:14:33
Post #1

Маньяк
**********
Group: Металариец
Posts: 1,360
Releases: 65
From: Санкт-Петербург
On Forums: 16 years 6 months
Thanks: 3593 time(s)
Russian Federation


(IMG:http://metalarea.org/images/audiocovers/2022_Sep/acov_tid370132_thumb.jpg)

*Artist: Flint Glass
*Album: Azathoth
*Year: 2022
*Genre: Electronic/Dark Ambient
*Country: France (IMG:http://metalarea.org/forum/style_images/flags/France.png)
*Format: mp3@CBR320kbps
*Size: 92MB

Tracklist:
01. The Nameless Mist 04:52
02. Nyctelios 05:17
03. Lu-Kthu 03:59
04. The Blackness From The Stars 04:56
05. Cognitive Resonance 05:19
06. Shub-Niggurath 04:03
07. The Troubler Of The Sands 07:56
08. Xexanoth 03:02
******************************
Total playing time: 39:23



Technical info
(IMG:http://metalarea.org/images/spectrogram/2022_Sep/ee93da0a345ebacffe44086855336f09.png)
Input File: 03 - Lu-Kthu.mp3
Channels : 2
Sample Rate : 44100
Precision : 16-bit
Duration : 00:03:58.00 = 10495800 samples = 17850 CDDA sectors
File Size : 9.55M
Bit Rate : 321k
Sample Encoding: MPEG audio (layer I, II or III)
Comments :
Title=Lu-Kthu
Artist=Flint Glass
Album=Azathoth
Tracknumber=03
Year=2022
Genre=Electronic/Dark Ambient



Register


Go to the top of the page
  Insert nick Quick quote
+Quote Post
 
Start new topic
Replies (1 - 5)
post Oct 3 2022, 10:06:58
Post #2

Два Литра
**
Group: Завсегдатай
Posts: 198
Releases: 0
From: Чуркестан
On Forums: 15 years 3 months
Thanks: 19 time(s)
Zimbabwe


Эмбиэнт, бит-бокс, что-то околоклубное-изёвое на мой ух.
Go to the top of the page
  Insert nick Quick quote
+Quote Post
post Oct 3 2022, 12:15:01
Post #3

Маньяк
**********
Group: Металариец
Posts: 1,360
Releases: 65
From: Санкт-Петербург
On Forums: 16 years 6 months
Thanks: 3593 time(s)
Russian Federation


ЦИТАТА(zoog @ 3rd October 2022 - 12:06:58) *
что-то околоклубное-изёвое

И в каком же клубе подобное играют? На самом деле, конечно, здесь гораздо более доступная для восприятия форма электронной музыки, нежели на его ранних альбомах (Hierakonpolis был чертовски крут!), но мне в общем все равно понравилось. Порадовал и сам факт выпуска альбома, а то в последнее время выходили только разные коллаборации.
Go to the top of the page
  Insert nick Quick quote
+Quote Post
post Oct 4 2022, 21:09:24
Post #4

...Only Death Is Real...
**************
Group: Металариец
Posts: 3,154
Releases: 23
On Forums: 12 years 4 months
Thanks: 2103 time(s)
Antarctica


ЦИТАТА(zoog @ Oct 3 2022, 14:06:58) *
бит-бокс

Где? (IMG:style_emoticons/default/17.gif) Драм машина есть, а вот битбокса не заметил. (IMG:style_emoticons/default/smile2.gif)
Go to the top of the page
  Insert nick Quick quote
+Quote Post
post Oct 6 2022, 04:40:49
Post #5

Два Литра
**
Group: Завсегдатай
Posts: 198
Releases: 0
From: Чуркестан
On Forums: 15 years 3 months
Thanks: 19 time(s)
Zimbabwe


ЦИТАТА(Hell_Is_Here @ 5th October 2022 - 01:09:24) *
Где? Драм машина есть, а вот битбокса не заметил.

Эм, брек-бит, возможно? я не сварщик по клубным делам) Что-то заводное на барабане.

ЦИТАТА(as71 @ 3rd October 2022 - 16:15:01) *
И в каком же клубе подобное играют?

В лаунж-барах) не всё, но местами музыка для лифтов проглядывает.
Go to the top of the page
  Insert nick Quick quote
+Quote Post
post Oct 6 2022, 19:21:52
Post #6

...Only Death Is Real...
**************
Group: Металариец
Posts: 3,154
Releases: 23
On Forums: 12 years 4 months
Thanks: 2103 time(s)
Antarctica


ЦИТАТА(zoog @ Oct 6 2022, 08:40:49) *
Эм, брек-бит, возможно? я не сварщик по клубным делам) Что-то заводное на барабане.

Просто к сведению - битбокс, это приём "игры" частями тела человека, типа рот\губы\язык\горло\голос. (IMG:style_emoticons/default/bye.gif)
Go to the top of the page
  Insert nick Quick quote
+Quote Post

Reply to this topicStart new topic
1 User(s) are reading this topic (1 Guests and 0 Anonymous Users)
0 Members:

 



- Lo-Fi Version Support form
Copyrights and abuse reports form
Time is now: 6th December 2022 - 22:44:31